Проклятие Аннабель: Зарождение зла / Annabelle: Creation (2017) BDRip 720p | Лицензия

Reply to topic
 
Author Message

Monk ®

Gender: Male

Longevity: 5 months 8 days

Posts: 5440

Location: Казань

Post 30-Nov-2018 13:11

[Quote]

Проклятие Аннабель: Зарождение зла / Annabelle: Creation Год выпуска: 2017
Жанр: Ужасы, триллер, детектив
Выпущено: США, Atomic Monster, New Line Cinema
Режиссер: Дэвид Ф. Сандберг
В ролях: Стефани Сигман, Миранда Отто, Лулу Уилсон, Энтони ЛаПалья, Талита Бейтман, Алисия Вела-Бэйли, Керри О Мэлли, Филиппа Култхард, Джозеф Бишара, Адам Бартли
О фильме: Кукольный мастер, чья единственная дочь трагически погибла 20 лет назад, вместе с женой решают открыть двери своего дома для монахини и нескольких девочек из закрытого сиротского приюта. Но одержимое создание кукольника – Аннабель – пристально наблюдает за детьми и вскоре накрывает их убежище ураганом ужаса и страха.

Качество: BDRip 720p
Видео: MPEG-4 AVC, 5251 Kбит/с, 1280x534
Аудио: Русский (AC3, 6 ch, 640 Кбит/с), английский (AC3, 6 ch, 448 Кбит/с)
Продолжительность: 01:49:43
Перевод: Дублированный [Лицензия]
Субтитры: Русские, английские

Скриншоты


MediaInfo

Формат : Matroska
Версия формата : Version 4 / Version 2
Размер файла : 4,86 Гбайт
Продолжительность : 1 ч. 49 м.
Общий поток : 6340 Кбит/сек
Название фильма : Annabelle.Creation.2017.D.BDRip.720p.
Дата кодирования : UTC 2017-11-18 16:35:38
Программа кодирования : mkvmerge v17.0.0 ('Be Ur Friend') 64-bit
Библиотека кодирования : libebml v1.3.5 + libmatroska v1.4.8
Видео
Идентификатор : 1
Формат : AVC
Формат/Информация : Advanced Video Codec
Профиль формата : High@L4.1
Параметр CABAC формата : Да
Параметр ReFrames формата : 12 кадров
Идентификатор кодека : V_MPEG4/ISO/AVC
Продолжительность : 1 ч. 49 м.
Битрейт : 5251 Кбит/сек
Ширина : 1280 пикселей
Высота : 534 пикселя
Соотношение сторон : 2,40:1
Режим частоты кадров : Постоянный
Частота кадров : 23,976 (24000/1001) кадра/сек
Цветовое пространство : YUV
Субдискретизация насыщенности : 4:2:0
Битовая глубина : 8 бит
Тип развёртки : Прогрессивная
Бит/(Пиксели*Кадры) : 0.320
Размер потока : 4,02 Гбайт (83%)
Библиотека кодирования : x264 core 148 r2597 e86f3a1
Настройки программы : cabac=1 / ref=12 / deblock=1:0:0 / analyse=0x3:0x113 / me=umh / subme=10 / psy=1 / psy_rd=1.05:0.10 / mixed_ref=1 / me_range=32 / chroma_me=1 / trellis=2 / 8x8dct=1 / cqm=0 / deadzone=21,11 / fast_pskip=0 / chroma_qp_offset=-2 / threads=12 / lookahead_threads=1 / sliced_threads=0 / nr=0 / decimate=1 / interlaced=0 / bluray_compat=0 / constrained_intra=0 / bframes=6 / b_pyramid=2 / b_adapt=2 / b_bias=0 / direct=3 / weightb=1 / open_gop=0 / weightp=2 / keyint=250 / keyint_min=23 / scenecut=40 / intra_refresh=0 / rc=2pass / mbtree=0 / bitrate=5251 / ratetol=1.0 / qcomp=0.70 / qpmin=0 / qpmax=69 / qpstep=4 / cplxblur=20.0 / qblur=0.5 / ip_ratio=1.40 / pb_ratio=1.30 / aq=2:1.00
Язык : English
Default : Да
Forced : Нет
Аудио #1
Идентификатор : 2
Формат : AC-3
Формат/Информация : Audio Coding 3
Параметр Endianness формата : Big
Идентификатор кодека : A_AC3
Продолжительность : 1 ч. 49 м.
Вид битрейта : Постоянный
Битрейт : 640 Кбит/сек
Каналы : 6 каналов
Расположение каналов : Front: L C R, Side: L R, LFE
Частота : 48,0 КГц
Частота кадров : 31,250 кадров/сек (1536 spf)
Битовая глубина : 16 бит
Метод сжатия : С потерями
Размер потока : 502 Мбайт (10%)
Заголовок : Dub [License]
Язык : Russian
ServiceKind/String : Complete Main
Default : Да
Forced : Нет
Аудио #2
Идентификатор : 3
Формат : AC-3
Формат/Информация : Audio Coding 3
Параметр Endianness формата : Big
Идентификатор кодека : A_AC3
Продолжительность : 1 ч. 49 м.
Вид битрейта : Постоянный
Битрейт : 448 Кбит/сек
Каналы : 6 каналов
Расположение каналов : Front: L C R, Side: L R, LFE
Частота : 48,0 КГц
Частота кадров : 31,250 кадров/сек (1536 spf)
Битовая глубина : 16 бит
Метод сжатия : С потерями
Размер потока : 352 Мбайт (7%)
Заголовок : Original
Язык : English
ServiceKind/String : Complete Main
Default : Нет
Forced : Нет
Текст #1
Идентификатор : 4
Формат : UTF-8
Идентификатор кодека : S_TEXT/UTF8
Идентификатор кодека/Информация : UTF-8 Plain Text
Продолжительность : 1 ч. 47 м.
Битрейт : 0 бит/сек
ElementCount : 7
Размер потока : 267 байт (0%)
Заголовок : Forced
Язык : Russian
Default : Да
Forced : Нет
Текст #2
Идентификатор : 5
Формат : UTF-8
Идентификатор кодека : S_TEXT/UTF8
Идентификатор кодека/Информация : UTF-8 Plain Text
Продолжительность : 1 ч. 47 м.
Битрейт : 37 бит/сек
ElementCount : 702
Размер потока : 29,4 Кбайт (0%)
Заголовок : Full
Язык : Russian
Default : Нет
Forced : Нет
Текст #3
Идентификатор : 6
Формат : UTF-8
Идентификатор кодека : S_TEXT/UTF8
Идентификатор кодека/Информация : UTF-8 Plain Text
Продолжительность : 1 ч. 40 м.
Битрейт : 25 бит/сек
ElementCount : 715
Размер потока : 19,0 Кбайт (0%)
Заголовок : Full
Язык : English
Default : Нет
Forced : Нет
Текст #4
Идентификатор : 7
Формат : UTF-8
Идентификатор кодека : S_TEXT/UTF8
Идентификатор кодека/Информация : UTF-8 Plain Text
Продолжительность : 1 ч. 46 м.
Битрейт : 31 бит/сек
ElementCount : 1021
Размер потока : 25,0 Кбайт (0%)
Заголовок : SDH
Язык : English
Default : Нет
Forced : Нет
Текст #5
Идентификатор : 8
Формат : UTF-8
Идентификатор кодека : S_TEXT/UTF8
Идентификатор кодека/Информация : UTF-8 Plain Text
Продолжительность : 1 ч. 46 м.
Битрейт : 81 бит/сек
ElementCount : 1012
Размер потока : 63,4 Кбайт (0%)
Заголовок : SDH Colored
Язык : English
Default : Нет
Forced : Нет
Меню
00:00:00.000 : en:Chapter 1
00:11:25.351 : en:Chapter 2
00:20:35.067 : en:Chapter 3
00:30:33.290 : en:Chapter 4
00:42:03.604 : en:Chapter 5
00:52:39.239 : en:Chapter 6
01:03:12.497 : en:Chapter 7
01:13:14.682 : en:Chapter 8
01:23:55.614 : en:Chapter 9
01:33:19.302 : en:Chapter 10
01:43:27.618 : en:Chapter 11
[Profile] [PM]
Display posts:    
Reply to topic

Current time is: 23-Apr 10:00

All times are UTC + 3



You cannot post new topics in this forum
You cannot reply to topics in this forum
You cannot edit your posts in this forum
You cannot delete your posts in this forum
You cannot vote in polls in this forum
You cannot attach files in this forum
You cannot download files in this forum