Дальше по коридору / Down a Dark Hall (2018) BDRip 1080p | iTunes

Reply to topic
 
Author Message

Monk ®

Gender: Male

Longevity: 8 months 2 days

Posts: 7476

Location: Казань

Post 30-Nov-2018 13:33

[Quote]

Дальше по коридору / Down a Dark Hall Год выпуска: 2018
Жанр: Ужасы, фэнтези, триллер, драма
Выпущено: Испания, США, Fickle Fish Films,Nostromo Pictures,Temple Hill Entertainment
Режиссер: Родриго Кортес
В ролях: Анна-София Робб, Ума Турман, Изабель Фурман, Виктория Моролес, Ной Сильвер, Тейлор Расселл, Рози Дэй, Ребекка Фронт, Джоди Мэй, Пип Торренс
О фильме: Трудный подросток Кит Горди никак не может смириться со смертью отца, которая произошла несколько лет назад. Девушка бунтует и своим поведением добивается того, что ее отправляют в школу-интернат Блэквуд. Кроме нее туда прибывают еще четыре проблемные ученицы, в каждой из которых директриса мадам Дюрэ намерена увидеть скрытый талант и вытащить его наружу. Девушки вскоре и впрямь обнаруживают недюжинные способности в разных областях науки и искусства, но Кит чувствует, что что-то тут не так.

Качество: BDRip 1080p
Видео: MPEG-4 AVC, 15.2 Мбит/с, 1920x802
Аудио: Русский (AC3, 6 ch, 384 Кбит/с), английский (AC3, 6 ch, 640 Кбит/с)
Продолжительность: 01:36:24
Перевод: Профессиональный многоголосый [iTunes]
Субтитры: Русские, английские

Скриншоты



MediaInfo

General
Unique ID : 272734906066366033737722011126935164081 (0xCD2ED50E28791E8E76EA8D24805D94B1)
Complete name : D:\Video111\Down.a.Dark.Hall.2018.BDRip.1080p.selezen.mkv
Format : Matroska
Format version : Version 4
File size : 10.9 GiB
Duration : 1 h 36 min
Overall bit rate : 16.2 Mb/s
Movie name : Down.a.Dark.Hall.2018 from селезень
Encoded date : UTC 2018-11-27 22:43:17
Writing application : mkvmerge v28.2.0 ('The Awakening') 64-bit
Writing library : libebml v1.3.6 + libmatroska v1.4.9
Video
ID : 1
Format : AVC
Format/Info : Advanced Video Codec
Format profile : High@L4.1
Format settings : CABAC / 5 Ref Frames
Format settings, CABAC : Yes
Format settings, ReFrames : 5 frames
Codec ID : V_MPEG4/ISO/AVC
Duration : 1 h 36 min
Bit rate : 15.2 Mb/s
Width : 1 920 pixels
Height : 802 pixels
Display aspect ratio : 2.40:1
Frame rate mode : Constant
Frame rate : 23.976 (24000/1001) FPS
Color space : YUV
Chroma subsampling : 4:2:0
Bit depth : 8 bits
Scan type : Progressive
Bits/(Pixel*Frame) : 0.412
Stream size : 10.3 GiB (94%)
Title : playHD
Writing library : x264 core 157 r2867+103 0d6443f t_mod_Custom_2 [8-bit@all X86_64]
Encoding settings : cabac=1 / ref=5 / deblock=1:-3:-3 / analyse=0x3:0x133 / me=umh / subme=10 / psy=1 / fade_compensate=0.00 / psy_rd=1.00:0.00 / mixed_ref=1 / me_range=32 / chroma_me=1 / trellis=2 / 8x8dct=1 / cqm=0 / deadzone=21,11 / fast_pskip=0 / chroma_qp_offset=-2 / threads=16 / lookahead_threads=2 / sliced_threads=0 / nr=0 / decimate=0 / interlaced=0 / bluray_compat=0 / constrained_intra=0 / fgo=0 / bframes=8 / b_pyramid=2 / b_adapt=2 / b_bias=0 / direct=3 / weightb=1 / open_gop=0 / weightp=2 / keyint=250 / keyint_min=23 / scenecut=40 / intra_refresh=0 / rc=crf / mbtree=0 / crf=18.9000 / qcomp=0.60 / qpmin=0:0:0 / qpmax=69:69:69 / qpstep=4 / ip_ratio=1.25 / pb_ratio=1.15 / aq=3:0.85 / aq-sensitivity=10.00 / aq-factor=1.00:1.00:1.00 / aq2=0 / aq3=0
Language : English
Default : Yes
Forced : No
Audio #1
ID : 2
Format : AC-3
Format/Info : Audio Coding 3
Commercial name : Dolby Digital
Codec ID : A_AC3
Duration : 1 h 36 min
Bit rate mode : Constant
Bit rate : 384 kb/s
Channel(s) : 6 channels
Channel layout : L R C LFE Ls Rs
Sampling rate : 48.0 kHz
Frame rate : 31.250 FPS (1536 SPF)
Bit depth : 16 bits
Compression mode : Lossy
Stream size : 265 MiB (2%)
Title : iTunes
Language : Russian
Service kind : Complete Main
Default : Yes
Forced : Yes
Audio #2
ID : 3
Format : AC-3
Format/Info : Audio Coding 3
Commercial name : Dolby Digital
Codec ID : A_AC3
Duration : 1 h 36 min
Bit rate mode : Constant
Bit rate : 640 kb/s
Channel(s) : 6 channels
Channel layout : L R C LFE Ls Rs
Sampling rate : 48.0 kHz
Frame rate : 31.250 FPS (1536 SPF)
Bit depth : 16 bits
Compression mode : Lossy
Stream size : 441 MiB (4%)
Title : Original
Language : English
Service kind : Complete Main
Default : No
Forced : No
Text #1
ID : 4
Format : UTF-8
Codec ID : S_TEXT/UTF8
Codec ID/Info : UTF-8 Plain Text
Duration : 1 h 27 min
Bit rate : 79 b/s
Count of elements : 955
Stream size : 50.8 KiB (0%)
Title : Full
Language : Russian
Default : No
Forced : No
Text #2
ID : 5
Format : UTF-8
Codec ID : S_TEXT/UTF8
Codec ID/Info : UTF-8 Plain Text
Duration : 1 h 27 min
Bit rate : 44 b/s
Count of elements : 1062
Stream size : 28.6 KiB (0%)
Title : Full
Language : English
Default : No
Forced : No
Text #3
ID : 6
Format : UTF-8
Codec ID : S_TEXT/UTF8
Codec ID/Info : UTF-8 Plain Text
Duration : 1 h 35 min
Bit rate : 45 b/s
Count of elements : 1242
Stream size : 32.2 KiB (0%)
Title : SDH
Language : English
Default : No
Forced : No
Menu
00:00:00.000 : :00:00:00.000
00:06:26.177 : :00:06:26.177
00:11:25.685 : :00:11:25.685
00:16:55.139 : :00:16:55.139
00:21:04.638 : :00:21:04.638
00:28:22.701 : :00:28:22.701
00:33:12.199 : :00:33:12.199
00:39:07.428 : :00:39:07.428
00:44:45.391 : :00:44:45.391
00:48:40.835 : :00:48:40.835
00:55:53.600 : :00:55:53.600
01:01:56.880 : :01:01:56.880
01:07:30.380 : :01:07:30.380
01:11:28.493 : :01:11:28.493
01:16:18.115 : :01:16:18.115
01:26:23.428 : :01:26:23.428
[Profile] [PM]
Display posts:    
Reply to topic

Current time is: 17-Jul 10:35

All times are UTC + 3



You cannot post new topics in this forum
You cannot reply to topics in this forum
You cannot edit your posts in this forum
You cannot delete your posts in this forum
You cannot vote in polls in this forum
You cannot attach files in this forum
You cannot download files in this forum