Вечер с Беверли Лафф Линн / An Evening with Beverly Luff Linn (2018) BDRip AVC | iTunes

Reply to topic
 
Author Message

Monk ®

Gender: Male

Longevity: 1 year 6 months

Posts: 12030

Location: Казань

Post 30-Nov-2018 14:09

[Quote]

Вечер с Беверли Лафф Линн / An Evening with Beverly Luff Linn Год выпуска: 2018
Жанр: Комедия, криминал
Выпущено: Великобритания, США, Park Pictures, Wigwam Films, Rook Films
Режиссер: Джим Хоскин
В ролях: Обри Плаза, Джемейн Клемент, Эмиль Хирш, Крэйг Робинсон, Мэтт Берри, Мария Бэмфорд, Майкл Коэн, Зак Черри, Скай Элобар, Джакоб Уайсоки
О фильме: Лулу Дэнжер - неудовлетворённая жизнью девушка. Отношения с супругом не заладились, на работе тоже не всё гладко. Однажды Лулу видит рекламу нового шоу со странным названием: «Вечер с Беверли Лафф Линн». Девушка узнаёт в Беверли человека из своего прошлого и готова бросить всё, чтобы провести с ним «одну магическую ночь».
Качество: BDRip AVC
Видео: MPEG-4 AVC, 2766 Кбит/с, 1024x552
Аудио: Русский (AC3, 6 ch, 384 Кбит/с), английский (AC3, 6 ch, 448 Кбит/с)
Продолжительность: 01:47:37
Перевод: Профессиональный многоголосый [iTunes]
Субтитры: Английские

Скриншоты


MediaInfo

Общее
Уникальный идентификатор : 229592847718597523017995870397540820296 (0xACB9F95AEFDF8069AF76BB7A7B436548)
Полное имя : D:\Раздача\Vecher S Beverli.2018.BDRip-AVC.ExKinoRay (1).mkv
Формат : Matroska
Версия формата : Version 4 / Version 2
Размер файла : 2,71 Гбайт
Продолжительность : 1 ч. 47 м.
Общий поток : 3600 Кбит/сек
Название фильма : An Evening with Beverly Luff Linn.2018.BDRip-AVC.ExKinoRay & grab777
Дата кодирования : UTC 2020-03-01 21:39:56
Программа кодирования : mkvmerge v7.3.0 ('Nouages') 64bit built on Oct 22 2014 18:53:34
Библиотека кодирования : libebml v1.3.0 + libmatroska v1.4.1
Видео
Идентификатор : 1
Формат : AVC
Формат/Информация : Advanced Video Codec
Профиль формата : High@L4.1
Настройки формата : CABAC / 12 Ref Frames
Параметр CABAC формата : Да
Параметр RefFrames формата : 12 кадров
Идентификатор кодека : V_MPEG4/ISO/AVC
Продолжительность : 1 ч. 47 м.
Битрейт : 2766 Кбит/сек
Ширина : 1024 пикселя
Высота : 552 пикселя
Соотношение сторон : 1,85:1
Режим частоты кадров : Переменный
Частота кадров : 24,000 кадра/сек
Цветовое пространство : YUV
Субдискретизация насыщенности : 4:2:0
Битовая глубина : 8 бит
Тип развёртки : Прогрессивная
Бит/(Пиксели*Кадры) : 0.204
Размер потока : 2,08 Гбайт (77%)
Заголовок : Rip by grab777
Библиотека кодирования : x264 core 148 r2665M a01e339
Настройки программы : cabac=1 / ref=12 / deblock=1:-2:-2 / analyse=0x3:0x133 / me=umh / subme=10 / psy=1 / psy_rd=1.00:0.15 / mixed_ref=1 / me_range=32 / chroma_me=1 / trellis=2 / 8x8dct=1 / cqm=0 / deadzone=21,11 / fast_pskip=0 / chroma_qp_offset=-3 / threads=5 / lookahead_threads=1 / sliced_threads=0 / nr=0 / decimate=1 / interlaced=0 / bluray_compat=0 / constrained_intra=0 / bframes=10 / b_pyramid=2 / b_adapt=2 / b_bias=0 / direct=3 / weightb=1 / open_gop=0 / weightp=2 / keyint=240 / keyint_min=24 / scenecut=40 / intra_refresh=0 / rc_lookahead=40 / rc=crf / mbtree=1 / crf=15.1 / qcomp=0.90 / qpmin=3 / qpmax=69 / qpstep=4 / vbv_maxrate=40000 / vbv_bufsize=30000 / crf_max=31.0 / nal_hrd=none / filler=0 / ip_ratio=1.40 / aq=1:0.00
Язык : English
Default : Да
Forced : Нет
Цветовой диапазон : Limited
Основные цвета : BT.709
Характеристики трансфера : BT.709
Коэффициенты матрицы : BT.709
Аудио #1
Идентификатор : 2
Формат : AC-3
Формат/Информация : Audio Coding 3
Параметр Endianness формата : Big
Идентификатор кодека : A_AC3
Продолжительность : 1 ч. 47 м.
Вид битрейта : Постоянный
Битрейт : 384 Кбит/сек
Каналы : 6 каналов
Расположение каналов : Front: L C R, Side: L R, LFE
Частота : 48,0 КГц
Частота кадров : 31,250 кадров/сек (1536 SPF)
Битовая глубина : 16 бит
Метод сжатия : С потерями
Размер потока : 296 Мбайт (11%)
Заголовок : MVO (iTunes)
Язык : Russian
ServiceKind/String : Complete Main
Default : Да
Forced : Да
Аудио #2
Идентификатор : 3
Формат : AC-3
Формат/Информация : Audio Coding 3
Параметр Endianness формата : Big
Идентификатор кодека : A_AC3
Продолжительность : 1 ч. 47 м.
Вид битрейта : Постоянный
Битрейт : 448 Кбит/сек
Каналы : 6 каналов
Расположение каналов : Front: L C R, Side: L R, LFE
Частота : 48,0 КГц
Частота кадров : 31,250 кадров/сек (1536 SPF)
Битовая глубина : 16 бит
Метод сжатия : С потерями
Размер потока : 345 Мбайт (12%)
Заголовок : Original
Язык : English
ServiceKind/String : Complete Main
Default : Нет
Forced : Нет
Текст
Идентификатор : 4
Формат : UTF-8
Идентификатор кодека : S_TEXT/UTF8
Идентификатор кодека/Информация : UTF-8 Plain Text
Продолжительность : 1 ч. 42 м.
Битрейт : 49 бит/сек
ElementCount : 1130
Размер потока : 37,4 Кбайт (0%)
Язык : English
Default : Нет
Forced : Нет
Меню
00:00:00.000 : :Chapter 01
00:06:38.833 : :Chapter 02
00:23:31.500 : :Chapter 03
00:38:49.541 : :Chapter 04
00:52:40.958 : :Chapter 05
01:08:14.916 : :Chapter 06
01:23:47.875 : :Chapter 07
01:37:41.833 : :Chapter 08
[Profile] [PM]
Display posts:    
Reply to topic

Current time is: 29-May 22:44

All times are UTC + 3



You cannot post new topics in this forum
You cannot reply to topics in this forum
You cannot edit your posts in this forum
You cannot delete your posts in this forum
You cannot vote in polls in this forum
You cannot attach files in this forum
You cannot download files in this forum