Мара. Пожиратель снов / Mara (2018) BDRip | iTunes

Reply to topic
 
Author Message

Monk ®

Gender: Male

Longevity: 8 months 8 days

Posts: 7519

Location: Казань

Post 18-Nov-2018 19:49

[Quote]

Мара. Пожиратель снов / Mara Год выпуска: 2018
Жанр: Ужасы, триллер, криминал
Выпущено: Великобритания, США, Moon River Studios,Grodnik /Aloe Productions,Aloe Entertainment
Режиссер: Клайв Тонг
В ролях: Ольга Куриленко, Хавьер Ботет, Митч Икинс, Лэнс Э. Николс, Рози Феллнер, Дэнди Баррет, Крэйг Конуэй, Мелисса Болона, Кэти МакГроу
О фильме: Кейт Фуллер приписана к расследованию убийства мужчины, которого, как считает полиция, задушила во сне собственная жена. В качестве свидетеля проходит восьмилетняя дочь убитого, Софи. Все дальше углубляясь в это дело, Кейт узнает о существовании древнего демона, убивающего своих жертв во сне. Она испытывает те же чудовищные симптомы и кошмары, поэтому сон становится для неё опасным.

Качество: BDRip
Видео: XviD, 1713 Kбит/с, 720x304
Аудио: Русский (AC3, 6 ch, 384 Кбит/с)
Продолжительность: 01:39:03
Перевод: Дублированный [iTunes]

Скриншоты

MediaInfo

Общее
Полное имя : D:\Мара. Пожиратель снов_2018_BDRip.avi
Формат : AVI
Формат/Информация : Audio Video Interleave
Размер файла : 1,46 Гбайт
Продолжительность : 1 ч. 39 м.
Общий поток : 2106 Кбит/сек
Программа кодирования : VirtualDubMod 1.5.10.3 | www.virtualdub-fr.org || (build 2550/release)
Библиотека кодирования : VirtualDubMod build 2550/release
Видео
Идентификатор : 0
Формат : MPEG-4 Visual
Профиль формата : Advanced Simple@L5
Настройки формата : BVOP1 / Custom Matrix
Параметр BVOP формата : 1
Параметр QPel формата : Нет
Параметр GMC формата : Без точки перехода
Параметр матрицы формата : Выборочная
Идентификатор кодека : XVID
Идентификатор кодека/Подсказка : XviD
Продолжительность : 1 ч. 39 м.
Битрейт : 1630 Кбит/сек
Ширина : 720 пикселей
Высота : 304 пикселя
Соотношение сторон : 2,35:1
Частота кадров : 23,976 (24000/1001) кадра/сек
Цветовое пространство : YUV
Субдискретизация насыщенности : 4:2:0
Битовая глубина : 8 бит
Тип развёртки : Прогрессивная
Метод сжатия : С потерями
Бит/(Пиксели*Кадры) : 0.311
Размер потока : 1,13 Гбайт (77%)
Библиотека кодирования : XviD 73
Аудио
Идентификатор : 1
Формат : AC-3
Формат/Информация : Audio Coding 3
Идентификатор кодека : 2000
Продолжительность : 1 ч. 38 м.
Вид битрейта : Постоянный
Битрейт : 384 Кбит/сек
Каналы : 6 каналов
Расположение каналов : Front: L C R, Side: L R, LFE
Частота : 48,0 КГц
Частота кадров : 31,250 кадров/сек (1536 SPF)
Битовая глубина : 16 бит
Метод сжатия : С потерями
Размер потока : 272 Мбайт (18%)
Выравнивание : Разделение по промежуткам
ServiceKind/String : Complete Main
[Profile] [PM]
Display posts:    
Reply to topic

Current time is: 22-Jul 18:16

All times are UTC + 3



You cannot post new topics in this forum
You cannot reply to topics in this forum
You cannot edit your posts in this forum
You cannot delete your posts in this forum
You cannot vote in polls in this forum
You cannot attach files in this forum
You cannot download files in this forum