Альфа / Alpha (2018) HDRip | iTunes

Reply to topic
 
Author Message

sergey82 ®

Gender: Male

Longevity: 7 months 8 days

Posts: 160

Location: Украина

Post 18-Nov-2018 21:09

[Quote]

Альфа / Alpha
Год выпуска: 2018
Жанр: Драма, приключения, семейный
Выпущено: США
Режиссер: Альберт Хьюз
В ролях: Коди Смит-МакФи, Наташа Мальте, Леонор Варела, Йоуханнес Хёйкьюр Йоуханнессон, Йенс Хультен, Мерседес Де Ла Зерда, Прия Раджаратнам, Спенсер Богерт, Патрик Флэнеган, Майкл Круз Даль
О фильме: 20 000 лет назад Земля была холодным и неуютным местом, в котором смерть подстерегала человека на каждом шагу, а жизнь зависела от того, удалось ли загнать добычу или нет. Молодой охотник из племени, которое по уровню жизни и культуры было одним из самых развитых на планете, оказывается один на один с враждебным миром, полным смертельных опасностей. Ему предстоит заглянуть в лицо своим страхам и найти дорогу домой. И возможно, от исхода его путешествия зависит судьба всего человечества.
Качество: HDRip
Видео: XviD, 1684 Кбит/с, 720x304
Аудио: Русский (AC3, 2 ch, 384 Кбит/с)
Продолжительность: 01:36:30
Перевод: Профессиональный (многоголосый закадровый) [iTunes]
Cубтитры: нет

Скриншоты

MediaInfo

Общее
Полное имя : D:\Alpha.2018_HDRip_[scarabey.org].avi
Формат : AVI
Формат/Информация : Audio Video Interleave
Размер файла : 1,40 Гбайт
Продолжительность : 1 ч. 36 м.
Общий поток : 2078 Кбит/сек
Программа кодирования : VirtualDubMod 1.5.10.3 | www.virtualdub-fr.org || (build 2550/release)
Библиотека кодирования : VirtualDubMod build 2550/release
Видео
Идентификатор : 0
Формат : MPEG-4 Visual
Профиль формата : Advanced Simple@L5
Настройки формата : BVOP1 / Custom Matrix
Параметр BVOP формата : 1
Параметр QPel формата : Нет
Параметр GMC формата : Без точки перехода
Параметр матрицы формата : Выборочная
Идентификатор кодека : XVID
Идентификатор кодека/Подсказка : XviD
Продолжительность : 1 ч. 36 м.
Битрейт : 1603 Кбит/сек
Ширина : 720 пикселей
Высота : 304 пикселя
Соотношение сторон : 2,35:1
Частота кадров : 23,976 (24000/1001) кадра/сек
Частота кадров в оригинале : 23,976 (23976/1000) кадра/сек
Цветовое пространство : YUV
Субдискретизация насыщенности : 4:2:0
Битовая глубина : 8 бит
Тип развёртки : Прогрессивная
Метод сжатия : С потерями
Бит/(Пиксели*Кадры) : 0.305
Размер потока : 1,08 Гбайт (77%)
Библиотека кодирования : XviD 73
Аудио
Идентификатор : 1
Формат : AC-3
Формат/Информация : Audio Coding 3
Идентификатор кодека : 2000
Продолжительность : 1 ч. 36 м.
Вид битрейта : Постоянный
Битрейт : 384 Кбит/сек
Каналы : 6 каналов
Расположение каналов : Front: L C R, Side: L R, LFE
Частота : 48,0 КГц
Частота кадров : 31,250 кадров/сек (1536 SPF)
Битовая глубина : 16 бит
Метод сжатия : С потерями
Размер потока : 265 Мбайт (18%)
Выравнивание : Разделение по промежуткам
ServiceKind/String : Complete Main
[Profile] [PM]
Display posts:    
Reply to topic

Current time is: 26-Jun 14:01

All times are UTC + 3



You cannot post new topics in this forum
You cannot reply to topics in this forum
You cannot edit your posts in this forum
You cannot delete your posts in this forum
You cannot vote in polls in this forum
You cannot attach files in this forum
You cannot download files in this forum