Маленький лес / Liteul poreseuteu (2018) BDRip 1080p | Храм Дорам, STEPonee

Reply to topic
 
Author Message

Monk ®

Gender: Male

Longevity: 11 months 3 days

Posts: 9023

Location: Казань

Post 30-Nov-2018 16:15

[Quote]

Маленький лес / Liteul poreseuteu Год выпуска: 2018
Жанр: Драма
Выпущено: Корея Южная, киностудия
Режиссер: Сун Ре Им
В ролях: Тэ Ри Ким, Чжун Ёль Рю, Со Ри Мун, Ки Чжу Чжин, Вон Сан Пак, Чжун Вон Чон, Сан Чжин Чжон, Сон Док Хон
О фильме: Хе-вон провела детство в деревне и, закончив школу, уехала в Сеул, но так и не привыкла к жизни и еде большого города. Девушка возвращается в родную деревню, где у нее имеются дом и огород. Тишина, свежий воздух, грядки и старые друзья помогают Хе-вон залечить душевные раны, обрести спокойствие и наконец-то насладиться невероятно вкусными блюдами из самостоятельно выращенных овощей и фруктов.
Качество: BDRip 1080p
Видео: MPEG-4 AVC, 14117 Кбит/с, 1920x804
Аудио: Русский (АС3, 2 ch, 640 Кбит/с), (ААС, 2 ch, 192 Кбит/с), корейский (DTS, 6 ch, 1536 Кбит/с), (HE-AAC, 2 ch, 64 Кбит/с)
Продолжительность: 01:43:34
Перевод: Любительский многоголосый [Храм Дорам], любительский двухголосый [STEPonee]
Субтитры: Русские, английские, корейские

Скриншоты


MediaInfo

Complete name : Маленький лес.2018.MVO.1080p.BluRay.x264-WiKi.mkv
Format : Matroska
Format version : Version 4
File size : 12.0 GiB
Duration : 1 h 43 min
Overall bit rate : 16.6 Mb/s
Movie name : Little Forest [2018] [1080p] MVO, DVO, RUSSUB
Encoded date : UTC 2019-08-09 23:03:42
Writing application : mkvmerge v35.0.0 ('All The Love In The World') 32-bit
Writing library : libebml v1.3.9 + libmatroska v1.5.2
Attachments : poster.jpg
DIRECTOR : Soon-rye Yim
GENRE : Drama
IMDB : tt6083230
KEYWORDS : rutracker.org , RG Orient Extreme Films , profile.php?mode=viewprofile&u=22488948
Video
ID : 1
Format : AVC
Format/Info : Advanced Video Codec
Format profile : High@L4.1
Format settings : CABAC / 5 Ref Frames
Format settings, CABAC : Yes
Format settings, Reference frames : 5 frames
Codec ID : V_MPEG4/ISO/AVC
Duration : 1 h 43 min
Bit rate : 14.1 Mb/s
Width : 1 920 pixels
Height : 804 pixels
Display aspect ratio : 2.40:1
Frame rate mode : Constant
Frame rate : 23.976 (24000/1001) FPS
Color space : YUV
Chroma subsampling : 4:2:0
Bit depth : 8 bits
Scan type : Progressive
Bits/(Pixel*Frame) : 0.381
Stream size : 10.2 GiB (85%)
Writing library : x264 core 157 r2969 d4099dd
Encoding settings : cabac=1 / ref=5 / deblock=1:-3:-3 / analyse=0x3:0x133 / me=umh / subme=10 / psy=1 / psy_rd=1.00:0.00 / mixed_ref=1 / me_range=64 / chroma_me=1 / trellis=2 / 8x8dct=1 / cqm=0 / deadzone=21,11 / fast_pskip=0 / chroma_qp_offset=-2 / threads=24 / lookahead_threads=4 / sliced_threads=0 / nr=0 / decimate=0 / interlaced=0 / bluray_compat=0 / constrained_intra=0 / bframes=7 / b_pyramid=2 / b_adapt=2 / b_bias=0 / direct=3 / weightb=1 / open_gop=0 / weightp=2 / keyint=250 / keyint_min=23 / scenecut=40 / intra_refresh=0 / rc_lookahead=60 / rc=crf / mbtree=0 / crf=15.7 / qcomp=0.60 / qpmin=0 / qpmax=69 / qpstep=4 / vbv_maxrate=62500 / vbv_bufsize=78125 / crf_max=0.0 / nal_hrd=none / filler=0 / ip_ratio=1.35 / pb_ratio=1.25 / aq=3:0.85 / zones=144551,149005,b=0.5
Language : Korean
Default : Yes
Forced : No
Audio #1
ID : 2
Format : AC-3
Format/Info : Audio Coding 3
Commercial name : Dolby Digital
Codec ID : A_AC3
Duration : 1 h 43 min
Bit rate mode : Constant
Bit rate : 640 kb/s
Channel(s) : 2 channels
Channel layout : L R
Sampling rate : 48.0 kHz
Frame rate : 31.250 FPS (1536 SPF)
Bit depth : 16 bits
Compression mode : Lossy
Stream size : 474 MiB (4%)
Title : MVO [Храм Дорам]
Language : Russian
Service kind : Complete Main
Default : Yes
Forced : No
Audio #2
ID : 3
Format : AAC LC
Format/Info : Advanced Audio Codec Low Complexity
Codec ID : A_AAC-2
Duration : 1 h 43 min
Bit rate : 192 kb/s
Channel(s) : 2 channels
Channel layout : L R
Sampling rate : 48.0 kHz
Frame rate : 46.875 FPS (1024 SPF)
Compression mode : Lossy
Stream size : 142 MiB (1%)
Title : DVO [STEPonee]
Language : Russian
Default : No
Forced : No
Audio #3
ID : 4
Format : DTS
Format/Info : Digital Theater Systems
Codec ID : A_DTS
Duration : 1 h 43 min
Bit rate mode : Constant
Bit rate : 1 509 kb/s
Channel(s) : 6 channels
Channel layout : C L R Ls Rs LFE
Sampling rate : 48.0 kHz
Frame rate : 93.750 FPS (512 SPF)
Bit depth : 24 bits
Compression mode : Lossy
Stream size : 1.09 GiB (9%)
Language : Korean
Default : No
Forced : No
Audio #4
ID : 5
Format : AAC LC SBR
Format/Info : Advanced Audio Codec Low Complexity with Spectral Band Replication
Commercial name : HE-AAC
Format settings : Explicit
Codec ID : A_AAC-2
Duration : 1 h 43 min
Bit rate : 64.0 kb/s
Channel(s) : 2 channels
Channel layout : L R
Sampling rate : 48.0 kHz
Frame rate : 23.438 FPS (2048 SPF)
Compression mode : Lossy
Stream size : 47.4 MiB (0%)
Title : commentary 1
Language : Korean
Default : No
Forced : No
Audio #5
ID : 6
Format : AAC LC SBR
Format/Info : Advanced Audio Codec Low Complexity with Spectral Band Replication
Commercial name : HE-AAC
Format settings : Explicit
Codec ID : A_AAC-2
Duration : 1 h 43 min
Bit rate : 64.0 kb/s
Channel(s) : 2 channels
Channel layout : L R
Sampling rate : 48.0 kHz
Frame rate : 23.438 FPS (2048 SPF)
Compression mode : Lossy
Stream size : 47.4 MiB (0%)
Title : commentary 2
Language : Korean
Default : No
Forced : No
Text #1
ID : 7
Format : UTF-8
Codec ID : S_TEXT/UTF8
Codec ID/Info : UTF-8 Plain Text
Duration : 1 h 38 min
Bit rate : 35 b/s
Count of elements : 880
Stream size : 25.3 KiB (0%)
Language : English
Default : No
Forced : No
Text #2
ID : 8
Format : UTF-8
Codec ID : S_TEXT/UTF8
Codec ID/Info : UTF-8 Plain Text
Duration : 1 h 38 min
Bit rate : 69 b/s
Count of elements : 883
Stream size : 49.9 KiB (0%)
Language : Russian
Default : No
Forced : No
Text #3
ID : 9
Format : PGS
Muxing mode : zlib
Codec ID : S_HDMV/PGS
Codec ID/Info : Picture based subtitle format used on BDs/HD-DVDs
Duration : 1 h 38 min
Bit rate : 20.5 kb/s
Count of elements : 1714
Stream size : 14.5 MiB (0%)
Language : English
Default : No
Forced : No
Text #4
ID : 10
Format : PGS
Muxing mode : zlib
Codec ID : S_HDMV/PGS
Codec ID/Info : Picture based subtitle format used on BDs/HD-DVDs
Duration : 1 h 38 min
Bit rate : 20.9 kb/s
Count of elements : 1861
Stream size : 14.7 MiB (0%)
Language : Korean
Default : No
Forced : No
Menu
00:00:00.000 : en:00:00:00.000
00:05:33.375 : en:00:05:33.375
00:11:29.814 : en:00:11:29.814
00:20:35.443 : en:00:20:35.443
00:27:15.801 : en:00:27:15.801
00:31:01.860 : en:00:31:01.860
00:38:04.365 : en:00:38:04.365
00:46:53.519 : en:00:46:53.519
00:51:45.269 : en:00:51:45.269
00:58:38.515 : en:00:58:38.515
01:10:13.459 : en:01:10:13.459
01:17:04.370 : en:01:17:04.370
01:22:14.263 : en:01:22:14.263
01:26:17.047 : en:01:26:17.047
01:31:32.987 : en:01:31:32.987
01:35:34.562 : en:01:35:34.562
01:40:27.521 : en:01:40:27.521
[Profile] [PM]
Display posts:    
Reply to topic

Current time is: 18-Oct 05:24

All times are UTC + 3



You cannot post new topics in this forum
You cannot reply to topics in this forum
You cannot edit your posts in this forum
You cannot delete your posts in this forum
You cannot vote in polls in this forum
You cannot attach files in this forum
You cannot download files in this forum