Опасный пассажир / Поездка / Ride (2018) WEB-DLRip-AVC | iTunes

Reply to topic
 
Author Message

sergey82 ®

Gender: Male

Longevity: 1 year

Posts: 160

Location: Украина

Post 18-Nov-2018 23:11

[Quote]

Опасный пассажир / Поездка / Ride
Год выпуска: 2018
Жанр: Триллер
Выпущено: США
Режиссер: Джереми Ангар
В ролях: Белла Торн, Джесси Ашер, Уилл Брилл, Байрон Л. Хопкинс, Хейли Кеанна Лаутенбах, Сара Линдсей
О фильме: Когда Джеймс, водитель Убера, и его пассажирка Джессика остановились, чтобы подвезти харизматичного Бруно, они не знали, что этот спокойный вечер обернётся для них гонкой на выживание.
Качество: WEB-DLRip-AVC
Видео: MPEG-4 AVC, 2347 Кбит/с, 1024x424
Аудио: Русский (AC3, 6 ch, 384 Кбит/с)
Продолжительность: 01:16:27
Перевод: Профессиональный (дублированный) [iTunes]
Cубтитры: нет

Скриншоты



MediaInfo

Общее
Уникальный идентификатор : 288870540714402258682024894949410384271 (0xD9527143D59794BDC957F4FA47F6A98F)
Полное имя : D:\Ride.2018.WEB-DLRip(AVC).OlLanDGroup.mkv
Формат : Matroska
Версия формата : Version 4 / Version 2
Размер файла : 1,46 Гбайт
Продолжительность : 1 ч. 16 м.
Общий поток : 2732 Кбит/сек
Название фильма : Ride.2018 #TorpedoUK#
Дата кодирования : UTC 2018-11-18 12:19:57
Программа кодирования : mkvmerge v25.0.0 ('Prog Noir') 64-bit
Библиотека кодирования : libebml v1.3.6 + libmatroska v1.4.9
Обложка : Yes
Attachments : small_cover.jpg / small_cover_land.jpg / cover.jpg / cover_land.jpg
Видео
Идентификатор : 1
Формат : AVC
Формат/Информация : Advanced Video Codec
Профиль формата : High@L4.1
Настройки формата : CABAC / 10 Ref Frames
Параметр CABAC формата : Да
Параметр RefFrames формата : 10 кадров
Идентификатор кодека : V_MPEG4/ISO/AVC
Продолжительность : 1 ч. 16 м.
Битрейт : 2347 Кбит/сек
Ширина : 1024 пикселя
Высота : 424 пикселя
Соотношение сторон : 2,40:1
Режим частоты кадров : Постоянный
Частота кадров : 23,976 (24000/1001) кадра/сек
Цветовое пространство : YUV
Субдискретизация насыщенности : 4:2:0
Битовая глубина : 8 бит
Тип развёртки : Прогрессивная
Бит/(Пиксели*Кадры) : 0.225
Размер потока : 1,22 Гбайт (84%)
Библиотека кодирования : x264 core 146 r2538 121396c
Настройки программы : cabac=1 / ref=10 / deblock=1:-2:-3 / analyse=0x3:0x113 / me=umh / subme=11 / psy=1 / psy_rd=0.95:0.07 / mixed_ref=1 / me_range=48 / chroma_me=1 / trellis=2 / 8x8dct=1 / cqm=0 / deadzone=21,11 / fast_pskip=1 / chroma_qp_offset=-3 / threads=6 / lookahead_threads=1 / sliced_threads=0 / nr=0 / decimate=1 / interlaced=0 / bluray_compat=0 / constrained_intra=0 / bframes=11 / b_pyramid=2 / b_adapt=2 / b_bias=0 / direct=3 / weightb=1 / open_gop=0 / weightp=2 / keyint=240 / keyint_min=23 / scenecut=40 / intra_refresh=0 / rc_lookahead=40 / rc=2pass / mbtree=0 / bitrate=2347 / ratetol=1.0 / qcomp=0.60 / qpmin=0 / qpmax=69 / qpstep=4 / cplxblur=20.0 / qblur=0.5 / vbv_maxrate=50000 / vbv_bufsize=62500 / nal_hrd=none / filler=0 / ip_ratio=1.40 / pb_ratio=1.30 / aq=1:1.00
Default : Да
Forced : Нет
Аудио
Идентификатор : 2
Формат : AC-3
Формат/Информация : Audio Coding 3
Идентификатор кодека : A_AC3
Продолжительность : 1 ч. 16 м.
Вид битрейта : Постоянный
Битрейт : 384 Кбит/сек
Каналы : 6 каналов
Расположение каналов : Front: L C R, Side: L R, LFE
Частота : 48,0 КГц
Частота кадров : 31,250 кадров/сек (1536 SPF)
Битовая глубина : 16 бит
Метод сжатия : С потерями
Размер потока : 210 Мбайт (14%)
Заголовок : DUB [iTunes]
Язык : Russian
ServiceKind/String : Complete Main
Default : Да
Forced : Нет
Меню
00:00:00.000 : en:1
00:10:47.272 : en:2
00:20:40.073 : en:3
00:31:00.401 : en:4
00:41:10.094 : en:5
00:49:45.984 : en:6
01:00:11.192 : en:7
01:09:19.615 : en:8
01:13:42.252 : en:9
[Profile] [PM]
Display posts:    
Reply to topic

Current time is: 07-Dec 15:53

All times are UTC + 3



You cannot post new topics in this forum
You cannot reply to topics in this forum
You cannot edit your posts in this forum
You cannot delete your posts in this forum
You cannot vote in polls in this forum
You cannot attach files in this forum
You cannot download files in this forum