Родные люди [1-8 серии из 8] (2018) WEB-DLRip от Files-x

Reply to topic
 
Author Message

bond74 ®

Gender: Male

Longevity: 9 months 5 days

Posts: 580

Post 30-Nov-2018 23:10

[Quote]

Родные люди Год выпуска: 2018
Жанр: Мелодрама
Выпущено: Россия, Мармот-фильм
Режиссер: Алексей Царев
В ролях: Ирина Розанова, Андрей Ильин, Мария Машкова, Варвара Бородина, Игнат Акрачков, Семён Шкаликов, Артём Ткаченко, Наталия Вдовина, Александр Андриенко, Андрей Феськов, Михаил Стародубов, Татьяна Орлова, Владимир Антоник, Ольга Дибцева, Илья Бледный, Сергей Холмогоров, Александр Водопьянов, Андрей Забара, Анна Потебня, Дарья Петриченко
О фильме: Галина, сильная женщина, капитан огромного морского судна, мать двух взрослых дочерей. Бурные девяностые годы поломали немало людских судеб. Развели они по разным жизненным дорогам и Галину с Сергеем. Некогда любившие друг друга родные люди, разлетелись по разным частям света. Галине пришлось одной поднимать на ноги и растить двух замечательных дочек.

Качество: WEB-DLRip
Видео: XviD, ~ 1500 Кбит/с, 720x352, 25 кадр/с
Аудио: AC3, 2 ch, 192 Кбит/с
Продолжительность: 12 х ~ 00:50:00
Перевод: Не требуется
Субтитры: нет

Скриншоты

MediaInfo

General
General
Complete name : H:\Родные люди.2018.WEB-DLRip.Files-x\02.Родные люди.2018.WEB-DLRip.Files-x.avi
Format : AVI
Format/Info : Audio Video Interleave
File size : 628 MiB
Duration : 51mn 36s
Overall bit rate : 1 701 Kbps
Writing application : VirtualDubMod 1.5.10.3 | www.virtualdub-fr.org || (build 2550/release)
Writing library : VirtualDubMod build 2550/release
Video
ID : 0
Format : MPEG-4 Visual
Format profile : Advanced Simple@L5
Format settings, BVOP : 1
Format settings, QPel : No
Format settings, GMC : No warppoints
Format settings, Matrix : Custom
Codec ID : XVID
Codec ID/Hint : XviD
Duration : 51mn 36s
Bit rate : 1 499 Kbps
Width : 720 pixels
Height : 400 pixels
Display aspect ratio : 16:9
Frame rate : 25.000 fps
Color space : YUV
Chroma subsampling : 4:2:0
Bit depth : 8 bits
Scan type : Progressive
Compression mode : Lossy
Bits/(Pixel*Frame) : 0.208
Stream size : 553 MiB (88%)
Writing library : XviD 73
Audio
ID : 1
Format : AC-3
Format/Info : Audio Coding 3
Mode extension : CM (complete main)
Codec ID : 2000
Duration : 51mn 36s
Bit rate mode : Constant
Bit rate : 192 Kbps
Channel(s) : 2 channels
Channel positions : Front: L R
Sampling rate : 48.0 KHz
Bit depth : 16 bits
Compression mode : Lossy
Stream size : 70.9 MiB (11%)
Alignment : Split accross interleaves
Interleave, duration : 40 ms (1.00 video frame)
Interleave, preload duration : 500 ms
Релиз от:
[Profile] [PM]
Display posts:    
Reply to topic

Current time is: 20-Aug 20:26

All times are UTC + 3



You cannot post new topics in this forum
You cannot reply to topics in this forum
You cannot edit your posts in this forum
You cannot delete your posts in this forum
You cannot vote in polls in this forum
You cannot attach files in this forum
You cannot download files in this forum