ГудНайтШоу [1-9 выпуски] (2018) WEBRip от GeneralFilm

Reply to topic
 
Author Message

vsobbol ®

Gender: Male

Longevity: 8 months 6 days

Posts: 239

Location: Донецк

Post 01-Dec-2018 00:30

[Quote]

ГудНайтШоу
Год выпуска: 2018
Жанр: Юмористическое шоу, концерт, сатира
Выпущено: Украина, Квартал 95
Режиссер: Студия 95 квартал
В ролях: Валерий Жидков
О фильме: Валерий - ведущий шоу «Вечерний Киев» и программы «Чисто news», один из сценаристов «Вечернего Квартала» и других проектов студии «Квартал 95». Свою карьеру юмориста он начал в качестве участника команды КВН, получив сценическое имя «Тамбовский волк». Сейчас Валерий выступает с авторскими номерами в проекте «Вечерний Квартал» на «1 + 1» и сольными концертами. В новом проекте «# Гуднайтшоу» известный юморист представит ироничные монологи о событиях в стране и мире, о культуре, шоу-бизнес и религию, о работе на телевидении, а также тонко и остро будет шутить на бытовые темы, рассказывать смешные истории об известных людях и о себе.
Качество: WEBRip
Видео: XviD build 73, 720x400 (16:9), 25.000 fps, 1550 Kbps (0.220 bit/pixel)
Аудио: 48.0 kHz, AC3, 2/0 ch, 192 kbps
Продолжительность: 9 x ~ 00:27:00
Перевод: Не требуется
Cубтитры: нет

Скриншоты

MediaInfo

General
Complete name : D:\Razdachi\GudNajtShou.S01.2018.XviD.WEBRip.GeneralFilm\GudNajtShou.s01.e05.avi
Format : AVI
Format/Info : Audio Video Interleave
File size : 340 MiB
Duration : 27 min 1 s
Overall bit rate : 1 758 kb/s
Writing application : VirtualDubMod 1.5.10.3 | www.virtualdub-fr.org || (build 2550/release)
Writing library : VirtualDubMod build 2550/release
Video
ID : 0
Format : MPEG-4 Visual
Format profile : Advanced Simple@L5
Format settings, BVOP : 1
Format settings, QPel : No
Format settings, GMC : No warppoints
Format settings, Matrix : Custom
Codec ID : XVID
Codec ID/Hint : XviD
Duration : 27 min 1 s
Bit rate : 1 556 kb/s
Width : 720 pixels
Height : 400 pixels
Display aspect ratio : 16:9
Frame rate : 25.000 FPS
Color space : YUV
Chroma subsampling : 4:2:0
Bit depth : 8 bits
Scan type : Progressive
Compression mode : Lossy
Bits/(Pixel*Frame) : 0.216
Stream size : 301 MiB (89%)
Writing library : XviD 73
Audio
ID : 1
Format : AC-3
Format/Info : Audio Coding 3
Format settings, Endianness : Big
Codec ID : 2000
Duration : 27 min 1 s
Bit rate mode : Constant
Bit rate : 192 kb/s
Channel(s) : 2 channels
Channel positions : Front: L R
Sampling rate : 48.0 kHz
Frame rate : 31.250 FPS (1536 SPF)
Bit depth : 16 bits
Compression mode : Lossy
Stream size : 37.1 MiB (11%)
Alignment : Split accross interleaves
Interleave, duration : 40 ms (1.00 video frame)
Interleave, preload duratio : 500 ms
Service kind : Complete Main

Содержание

Выпуск 1: 1 таблетка и 4 раза, с женой | ТВ vs Человек
Если 30 лет назад хвастались, что уже нет квартир, в которых нет телевизора, то сейчас в этих квартирах сложно найти комнату, в которой нет телевизора - Валерий Жидков о телевидении и человеке.
Выпуск 2: Секс роботы, порнофильмы и гей-парады
Сфера развлечений развивается быстро, постоянно совершенствуется и на смену старым приходят новые, еще более развлекательные. Но чтобы мы не изобретали, есть только одно увлечение, которое остается одинаково интересным всем людям на протяжении всех тысяч лет нашего существования - Секс.
Выпуск 3: От прыжков в стекловату и армейских приколов до квартиры на Набережной - О Себе
Если не знаешь о чем шутить - шути про себя. Поэтому тема сегодняшнего шоу It's me, что сразу же свидетельствует об уровне моего английского...
Выпуск 4: Дети Киркорова, Популяция ботаников, Загробная жизнь | Верю не верю
Валерий Жидков будет говорить о религии. Несмотря на то, что эта тема не самая веселая, он постарается сделать все возможное, чтобы вы уснули после этого шоу, а не во время.
Выпуск 5: Диктатор, ЗАХВАТИВШИЙ Власть в Украине
Победить на честных демократических выборах в Украине очень дорого, власть проще захватить. А самое главное - диктатором быть намного интереснее и сегодняшнее шоу тому подтверждение.
Выпуск 6:Юмористический РАЗГРОМ ФЕМИНИСТКИ
Столкнувшись с ярым проявлением феминизма, я вдруг понял, что имею крайне мутное понятие, что же это такое. Не поленившись и прочитав огромное количество книг и статей по этой теме, больше всего меня порадовала книга под названием “Мужчина - это недоношенная женщина”. И сегодняшнее шоу - это своего рода юмористический разгром феминистки или монолог недоношенной женщины..
Выпуск 7: Бесплатная Медицина - В ЖИВЫХ Остаются Самые Сообразительные Пациенты
Сегодня мы поговорим о нашей медицине, благодаря которой нам испокон веков нужно немного больше здоровья, чем другим нациям. Именно бесплатная медицина регулирует естественный отбор - в живых остаются только самые ловкие и сообразительные пациенты.
Выпуск 8: Как Воспитать Ребенка ЧЕЛОВЕКОМ - Взрослые Сказки
В какой момент жизни маленький и безобидный ребенок начинает превращаться в будущего большого г@внюка, который вскоре будет бросать окурки на землю и выезжать в снег на летней резине? Сегодняшняя программа о том, как повлиять на воспитание ребенка, чтобы он стал ЧЕЛОВЕКОМ.
Выпуск 9: НЕОБЫЧНЫЙ Новогодний Выпуск
Сегодня вы увидите необычный выпуск. Это новогодний выпуск, в котором примут участие лучшие стендап комики Украины. Приятного просмотра!
Релиз от:
[Profile] [PM]
Display posts:    
Reply to topic

Current time is: 22-Jul 05:48

All times are UTC + 3



You cannot post new topics in this forum
You cannot reply to topics in this forum
You cannot edit your posts in this forum
You cannot delete your posts in this forum
You cannot vote in polls in this forum
You cannot attach files in this forum
You cannot download files in this forum