Пёс [4 сезон: 1-22 серии из 22] (2018) WEBRip от GeneralFilm

Reply to topic
 
Author Message

vsobbol ®

Gender: Male

Longevity: 10 months 3 days

Posts: 276

Location: Донецк

Post 01-Dec-2018 09:23

[Quote]

Пёс-4
Год выпуска: 2018
Жанр: Детектив
Выпущено: Украина, PRO-TV
Режиссер: Николай Каптан, Игорь Забара
В ролях: Андрей Саминин, Никита Панфилов, Михаил Жонин, Ольга Олексий, Денис Роднянский, Светлана Зельбет, Ольга Морозова, Тарас Мельничук
О фильме: Приключения Макса и его верного друга по кличке Пёс продолжаются! Они снова окажутся в центре преступных перепетий, и им в очередной раз придется показать, на что они способны. Макс продолжает работать вместе с бывшей женой Леной и бывшим лучшим другом Алексеем. Отношения Макса и Лены неопределенные, и это нередко нервирует ревнивца Леонидова. Гнездилов продолжает доказывать, что он самый лучший сыщик и знает все лучше остальных: выдвигая свои теории по каждому делу и следуя только своей логике в расследованиях, он по-прежнему попадает в нелепые и смешные ситуации.

Качество: WEBRip
Видео: XviD build 73, 720x400 (16:9), 25.000 fps, ~ 1300 Kbps (~ 0.180 bit/pixel)
Аудио: 48.0 kHz, AC3, 2/0 ch, 192 kbps
Продолжительность: 22 x ~ 00:50:00
Перевод: Не требуется
Субтитры: нет

Скриншоты

MediaInfo

General
Complete name : D:\Razdachi\Pes.s03.2018.XviD.WEBRip.GeneralFilm\Pes.s03.e01.avi
Format : AVI
Format/Info : Audio Video Interleave
File size : 557 MiB
Duration : 52 min 1 s
Overall bit rate : 1 498 kb/s
Writing application : VirtualDubMod 1.5.10.3 | www.virtualdub-fr.org || (build 2550/release)
Writing library : VirtualDubMod build 2550/release
Video
ID : 0
Format : MPEG-4 Visual
Format profile : Advanced Simple@L5
Format settings, BVOP : 1
Format settings, QPel : No
Format settings, GMC : No warppoints
Format settings, Matrix : Custom
Codec ID : XVID
Codec ID/Hint : XviD
Duration : 52 min 1 s
Bit rate : 1 296 kb/s
Width : 720 pixels
Height : 400 pixels
Display aspect ratio : 16:9
Frame rate : 25.000 FPS
Color space : YUV
Chroma subsampling : 4:2:0
Bit depth : 8 bits
Scan type : Progressive
Compression mode : Lossy
Bits/(Pixel*Frame) : 0.180
Stream size : 482 MiB (87%)
Writing library : XviD 73
Audio
ID : 1
Format : AC-3
Format/Info : Audio Coding 3
Format settings, Endianness : Big
Codec ID : 2000
Duration : 52 min 1 s
Bit rate mode : Constant
Bit rate : 192 kb/s
Channel(s) : 2 channels
Channel positions : Front: L R
Sampling rate : 48.0 kHz
Frame rate : 31.250 FPS (1536 SPF)
Bit depth : 16 bits
Compression mode : Lossy
Stream size : 71.4 MiB (13%)
Alignment : Split accross interleaves
Interleave, duration : 40 ms (1.00 video frame)
Interleave, preload duratio : 500 ms
Service kind : Complete Main

Содержание

01.Толкование сновидений
02.Пугало
03.Картина маслом
04.Сверхъестественное
05.Бриллианты навсегда
06.Рокировка
07.Электрошок
08.Гробовщик
09.Похищение
10.Дело врачей
11.Исчезновение
12.Дом с привидениями
13.Двойник
14.Осторожно, Моника
15.Лекарство от здоровья
16.Купите жену
17.Лучший сыщик
18.Гостья из будущего
19.Три обезьяны
20.Всадник без головы
21.Новогодний пес. 1я серия
22.Новогодний пес. 2я серия
3-й сезон по версии канала НТВ
Релиз от:
[Profile] [PM]
Display posts:    
Reply to topic

Current time is: 19-Sep 06:08

All times are UTC + 3



You cannot post new topics in this forum
You cannot reply to topics in this forum
You cannot edit your posts in this forum
You cannot delete your posts in this forum
You cannot vote in polls in this forum
You cannot attach files in this forum
You cannot download files in this forum