Что? Где? Когда? Зимняя серия игр [1-5 игра из 5] (2018) HDTV 1080i от GeneralFilm

Reply to topic
 
Author Message

olegka7373 ®

Gender: Male

Longevity: 11 months 3 days

Posts: 219

Location: Россия, Новокузнецк

Post 19-Nov-2018 00:38

[Quote]

Что? Где? Когда? Зимняя серия игр
Год выпуска: 2018
Жанр: Интеллектуальное шоу
Выпущено: Россия, Продюсерский центр "ИГРА-ТВ"
Ведущий: Борис Крюк
О фильме: Интеллектуальная викторина, наиболее распространённая в русскоязычной среде. Была создана в 1975 г. телеведущим Владимиром Ворошиловым. Игра очень быстро стала настолько популярной, что кроме оригинальной телевизионной версии появилась спортивная версия игры. Сущность игры заключается в противостоянии команды Знатоков (игровой команды из шести человек) команде Телезрителей. Знатоки должны за одну минуту при помощи мозгового штурма найти ответ на вопрос, присланный телезрителем. Как правило, игрокам задаются вопросы, ответить на которые можно с помощью общих знаний и логики. За каждый правильный ответ команда Знатоков получает одно очко, в случае неверного ответа очко начисляется команде Телезрителей. Игра ведётся до шести очков.
Качество: HDTV (1080i)
Видео: MPEG-TS AVC, ~ 7100 Кбит/с, 1920x1080
Аудио: Русский (AC3, 2 ch, 384 Кбит/с), (MP2, 2 ch, 192 Кбит/с)
Продолжительность: 5 х ~ 01:00:00
Перевод: Не требуется
Субтитры: нет

Скриншоты


MediaInfo

Общее
Идентификатор : 1 (0x1)
Полное имя : D:\Запись\Chto.Gde.Kogda.Zimnjaja serija igr.2018.HDTV(1080i).GeneralFilm\01.Chto.Gde.Kogda.Zimnjaja serija igr.2018.HDTV(1080i).GeneralFilm.ts
Формат : MPEG-TS
Размер файла : 3,27 Гбайт
Продолжительность : 57 м. 49 с.
Режим общего битрейта : Переменный
Общий поток : 8086 Кбит/сек
Видео
Идентификатор : 2931 (0xB73)
Идентификатор меню : 1079 (0x437)
Формат : AVC
Формат/Информация : Advanced Video Codec
Профиль формата : High@L4
Параметр CABAC формата : Да
Параметр ReFrames формата : 4 кадра
Идентификатор кодека : 27
Продолжительность : 57 м. 49 с.
Битрейт : 7105 Кбит/сек
Ширина : 1920 пикселей
Высота : 1080 пикселей
Соотношение сторон : 16:9
Частота кадров : 25,000 кадров/сек
Цветовое пространство : YUV
Субдискретизация насыщенности : 4:2:0
Битовая глубина : 8 бит
Тип развёртки : MBAFF
Метод сохранения типа развёртки : Чередующиеся поля
Порядок развёртки : Верхнее поле первое
Бит/(Пиксели*Кадры) : 0.137
Размер потока : 2,87 Гбайт (88%)
Аудио #1
Идентификатор : 2913 (0xB61)
Идентификатор меню : 1079 (0x437)
Формат : AC-3
Формат/Информация : Audio Coding 3
Расширение режима : CM (complete main)
Параметр Endianness формата : Big
Идентификатор кодека : 6
Продолжительность : 57 м. 49 с.
Вид битрейта : Постоянный
Битрейт : 384 Кбит/сек
Каналы : 6 каналов
Расположение каналов : Front: L C R, Side: L R, LFE
Частота : 48,0 КГц
Частота кадров : 31,250 кадров/сек (1536 spf)
Битовая глубина : 16 бит
Метод сжатия : С потерями
Задержка видео : -160 мс.
Размер потока : 159 Мбайт (5%)
Язык : Russian
Аудио #2
Идентификатор : 2914 (0xB62)
Идентификатор меню : 1079 (0x437)
Формат : MPEG Audio
Версия формата : Version 1
Профиль формата : Layer 2
Режим : Joint stereo
Расширение режима : Intensity Stereo + MS Stereo
Идентификатор кодека : 3
Продолжительность : 57 м. 49 с.
Вид битрейта : Постоянный
Битрейт : 192 Кбит/сек
Каналы : 2 канала
Частота : 48,0 КГц
Метод сжатия : С потерями
Задержка видео : -160 мс.
Размер потока : 79,4 Мбайт (2%)
Язык : Russian

Анонс

Первая игра зимней серии состоится 18 ноября. В ней примет участие сборная команда обладателей приза «Хрустальный атом». Состав команды: Борис Левин, Александра Золотова, Айк Казазян, Иван Марышев, Денис Галиакберов. Капитан – Виктор Сиднев.
Во второй игре зимней серии против телезрителей сыграет команда Алеся Мухина. В её составе: Вера Рабкина, Дарья Соловей, Николай Крапиль, Михаил Малкин, Станислав Мереминский. Капитан команды – Алесь Мухин.
В третьей игре примет участие команда Бориса Белозёрова. В её состав входят: Ольга Быкова, Дарья Любинская, Ким Галачян, Антон Иоков, Никита Старун. Капитан команды – Борис Белозёров.
В четвёртой игре зимней серии в борьбу вступит команда Балаша Касумова. В составе команды: Юлия Лазарева, Дмитрий Авдеенко, Михаил Скипский, Елизавета Овдеенко, а также Эльман Талыбов. Капитан команды – Балаш Касумов.
Пятая игра – финальная игра года. В ней примет участие команда, которая обыграет телезрителей с наиболее крупным счетом.

Внимание! Раздача ведётся путём добавления новых серий

Раздача ведётся путём добавления новых серий, при каждом добавлении создаётся новый торрент. Чтобы начать докачку новой серии, пользователям необходимо сделать следующее:
- Остановить скачивание.
- Удалить старый торрент у себя из клиента (старые серии удалять не надо).
- Скачать новый торрент и запустить его у себя в клиенте вместо старого, при этом указать клиенту путь в старую папку куда и должно происходить скачивание новых серий.
Ваш клиент при этом должен произвести хеширование (проверку) старой папки (если не производит сам - помогите ему сделать это), и будет докачивать только те серии которых у вас ещё нет. Старые серии при этом не удаляются, а продолжают раздаваться!
Если вы уже удалили старые серии, то предотвратить повторную закачку старых серий можно, отжав галочку в соответствующих местах при запуске нового торрента. По возможности, желательно не удалять старые серии как можно дольше, чтобы релизер не столько продолжал раздавать старые серии, а смог сконцентрироваться на новых.
Релиз:


Last edited by olegka7373 on 2018-12-25 17:30; edited 3 times in total
[Profile] [PM]

Мухич

Gender: Male

Longevity: 10 months 26 days

Posts: 53

Post 17-Dec-2018 00:59 (after 28 days)

[Quote]

4 игра бомба olegka7373, спасибо вам
[Profile] [PM]
Display posts:    
Reply to topic

Current time is: 16-Oct 13:51

All times are UTC + 3



You cannot post new topics in this forum
You cannot reply to topics in this forum
You cannot edit your posts in this forum
You cannot delete your posts in this forum
You cannot vote in polls in this forum
You cannot attach files in this forum
You cannot download files in this forum