Седьмая руна [1-8 серии из 8] (2015) WEB-DLRip-AVC от Files-x

Reply to topic
 
Author Message

papa1951deda ®

Gender: Male

Longevity: 9 months 26 days

Posts: 290

Location: Казахстан

Post 01-Dec-2018 13:03

[Quote]

Седьмая руна Год выпуска: 2015
Жанр: Детектив, мистика
Режиссер: Сергей Попов (II)
В ролях: Юрий Колокольников, Агния Кузнецова, Юлия Снигирь, Виктор Сухоруков, Роман Мадянов, Дарья Екамасова, Юрий Цурило, Дмитрий Куличков, Сергей Маркеев, Александр Нестеров (III), Сергей Федоров (VI), Евгения Осипова, Станислав Мухамадеев, Дмитрий Ульянов, Олег Чугунов, Андрей Марусин, Артём Лощилин, Наум Швец, Арсений Кудряшов
О фильме: В городе Н-ск при загадочных обстоятельствах погибает дочь губернатора. Для выяснения обстоятельств её смерти в город Н-ск из Москвы приезжает следователь Олег Нестеров. В том месте, где нашли тело девушки, проходила ролевая игра по карело-финскому эпосу «Калевала», и председатель ролевиков Вера параллельно начинает свое расследование. Однако новые жертвы и серия загадочных событий все больше запутывают Олега и Веру. А вскоре Нестеров понимает, что в Н-ске играют не только ролевики. И банкир, и прокурор, и губернатор вовлечены в некую странную азартную игру, смысл которой скрыт от непосвященных.
Качество: WEB-DLRip-AVC
Видео: MPEG-4, ~ 1600 Кбит/сек, 1024х576, 25,000 кадр/сек
Аудио: AC3, 2 ch, 192 Кбит/с
Продолжительность: 8 x ~ 00:45:00
Перевод: Не требуется
Субтитры: Нет

Скриншоты

MediaInfo

General
Unique ID : 216859121743635028516607085948084997227 (0xA3258C31588BA038B965B72FBDCCCC6B)
Complete name : D:\моё видио\Sedmaja.runa.2015.WEB-DLRip.(AVC).Files-x\Sedmaja.runa.(01.seriya).2015.WEB-DLRip.AVC.by.Серый1779.Files-x.mkv
Format : Matroska
Format version : Version 2
File size : 617 MiB
Duration : 48mn 6s
Overall bit rate : 1 794 Kbps
Encoded date : UTC 2016-01-16 14:57:33
Writing application : mkvmerge v5.6.0 ('Kenya Kane') built on Jun 29 2012 15:01:44
Writing library : libebml v1.2.3 + libmatroska v1.3.0
Video
ID : 1
Format : AVC
Format/Info : Advanced Video Codec
Format profile : High@L4.1
Format settings, CABAC : Yes
Format settings, ReFrames : 9 frames
Codec ID : V_MPEG4/ISO/AVC
Duration : 48mn 6s
Bit rate : 1 600 Kbps
Width : 1 024 pixels
Height : 576 pixels
Display aspect ratio : 16:9
Frame rate mode : Constant
Frame rate : 25.000 fps
Color space : YUV
Chroma subsampling : 4:2:0
Bit depth : 8 bits
Scan type : Progressive
Bits/(Pixel*Frame) : 0.109
Stream size : 539 MiB (87%)
Writing library : x264 core 125 r2200 999b753
Encoding settings : cabac=1 / ref=9 / deblock=1:-2:-1 / analyse=0x3:0x133 / me=umh / subme=9 / psy=1 / psy_rd=1.00:0.15 / mixed_ref=1 / me_range=32 / chroma_me=1 / trellis=2 / 8x8dct=1 / cqm=0 / deadzone=21,11 / fast_pskip=0 / chroma_qp_offset=-3 / threads=3 / lookahead_threads=1 / sliced_threads=0 / nr=0 / decimate=1 / interlaced=0 / bluray_compat=0 / constrained_intra=0 / bframes=9 / b_pyramid=2 / b_adapt=2 / b_bias=0 / direct=1 / weightb=1 / open_gop=0 / weightp=2 / keyint=250 / keyint_min=25 / scenecut=40 / intra_refresh=0 / rc_lookahead=50 / rc=2pass / mbtree=1 / bitrate=1600 / ratetol=1.0 / qcomp=0.60 / qpmin=0 / qpmax=69 / qpstep=4 / cplxblur=20.0 / qblur=0.5 / ip_ratio=1.40 / aq=2:1.00
Default : Yes
Forced : No
Color primaries : BT.709
Transfer characteristics : BT.709
Matrix coefficients : BT.709
Audio
ID : 2
Format : AC-3
Format/Info : Audio Coding 3
Mode extension : CM (complete main)
Format settings, Endianness : Big
Codec ID : A_AC3
Duration : 48mn 6s
Bit rate mode : Constant
Bit rate : 192 Kbps
Channel(s) : 2 channels
Channel positions : Front: L R
Sampling rate : 48.0 KHz
Bit depth : 16 bits
Compression mode : Lossy
Stream size : 66.1 MiB (11%)
Default : Yes
Forced : No
Релиз от:
[Profile] [PM]
Display posts:    
Reply to topic

Current time is: 17-Sep 00:25

All times are UTC + 3



You cannot post new topics in this forum
You cannot reply to topics in this forum
You cannot edit your posts in this forum
You cannot delete your posts in this forum
You cannot vote in polls in this forum
You cannot attach files in this forum
You cannot download files in this forum