Discovery. Тонущие города / Sinking Cities [1-5 серии из 5] (2018) HDTVRip 720p от GeneralFilm

Reply to topic
 
Author Message

Starik60 ®

Gender: Male

Longevity: 9 months 13 days

Posts: 148

Location: Москва, Россия

Post 01-Dec-2018 13:15

[Quote]

Тонущие города / Sinking Cities
Год выпуска: 2018
Жанр: Документальный, катастрофы, наводнение
Выпущено: Канада, Discovery Channel
О фильме: В любой момент стихийное бедствие – ураган, потоп или наводнение – может смести с лица земли такие города, как Лондон, Нью-Йорк, Майами и Венеция, поэтому ведущие специалисты служб экстренного реагирования разрабатывают проекты по защите крупных мегаполисов от схождения разрушительных природных катаклизмов. Каждая серия этой документальной программы посвящена истории одного города, его борьбе со стихиями, возможным последствиям сошествия сильнейших бурь и мерам безопасности, которые помогут избежать крупномасштабной трагедии в будущем.

Качество: HDTVRip 720p
Видео: MPEG-4 AVC, ~ 4000 Кбит/с, 1280x720
Аудио: MP2, 2 ch, 384 Кбит/с
Продолжительность: 5 x ~ 00:44:00
Перевод: Профессиональный (двухголосый, закадровый)

Скриншоты



MediaIfo

General
Unique ID : 260874358754336905359617014732085897551 (0xC44292ECBBFEB2F73CA157511805A94F)
Complete name : H:\Раздачи 4\Тонущие города 720p GeneralFilm\01 Тонущие города GeneralFilm.mkv
Format : Matroska
Format version : Version 2
File size : 1.34 GiB
Duration : 43 min 51 s
Overall bit rate mode : Constant
Overall bit rate : 4 389 kb/s
Writing application : Lavf54.63.104
Writing library : Lavf54.63.104
Video
ID : 1
Format : AVC
Format/Info : Advanced Video Codec
Format profile : High@L4.1
Format settings : CABAC / 3 Ref Frames
Format settings, CABAC : Yes
Format settings, ReFrames : 3 frames
Codec ID : V_MPEG4/ISO/AVC
Duration : 43 min 51 s
Bit rate mode : Constant
Bit rate : 4 000 kb/s
Width : 1 280 pixels
Height : 720 pixels
Display aspect ratio : 16:9
Frame rate mode : Constant
Frame rate : 50.000 FPS
Standard : PAL
Color space : YUV
Chroma subsampling : 4:2:0
Bit depth : 8 bits
Scan type : Progressive
Bits/(Pixel*Frame) : 0.087
Stream size : 1.20 GiB (89%)
Default : No
Forced : No
Color range : Limited
Color primaries : BT.709
Transfer characteristics : BT.709
Matrix coefficients : BT.709
Audio
ID : 2
Format : MPEG Audio
Format version : Version 1
Format profile : Layer 2
Codec ID : A_MPEG/L2
Codec ID/Hint : MP2
Duration : 43 min 51 s
Bit rate mode : Constant
Bit rate : 384 kb/s
Channel(s) : 2 channels
Sampling rate : 48.0 kHz
Compression mode : Lossy
Delay relative to video : 16 ms
Stream size : 120 MiB (9%)
Language : English
Default : Yes
Forced : No

Название серий

01. Нью-Йорк.
02. Токио.
03. Лондон.
04. Майами.
05. Венеция: тонущий город.

Внимание! Раздача ведётся путём добавления новых серий!

Внимание! Раздача ведётся путём добавления новых серий; при каждом добавлении создfётся новый торрент. Чтобы начать докачку новой серии, пользователям необходимо сделать следующее: (1) остановить скачивание, (2) удалить старый торрент у себя из клиента (старые серии удалять не надо), (3) скачать новый торрент и запустить его у себя в клиенте вместо старого, при этом указать клиенту путь в старую папку куда и должно происходить скачивание новых серий.
Ваш клиент при этом должен произвести хеширование (проверку) старой папки (если не производит сам - помогите ему сделать это), и будет докачивать только те серии которых у вас ещё нет. Старые серии при этом не удаляются, а продолжают раздаваться!
Eсли вы уже удалили старые серии, то предотвратить повторную закачку старых серий можно, отжав галочку в соответсвующих местах при запуске нового торрента.
Благодарю за отличный постер ValkiriaGF
Релиз от:
[Profile] [PM]

runetzone

Gender: Male

Longevity: 7 months 18 days

Posts: 65

Location: Санкт-Петербург

Post 13-Jan-2019 12:11 (after 1 month 11 days)

[Quote]

Спасибо за раздачу!!! ay
[Profile] [PM]
Display posts:    
Reply to topic

Current time is: 25-Aug 15:25

All times are UTC + 3



You cannot post new topics in this forum
You cannot reply to topics in this forum
You cannot edit your posts in this forum
You cannot delete your posts in this forum
You cannot vote in polls in this forum
You cannot attach files in this forum
You cannot download files in this forum