Свои [1-36 серии] (2017) WEBRip от Files-x

Reply to topic
 
Author Message

bond74 ®

Gender: Male

Longevity: 5 months 7 days

Posts: 309

Post 01-Dec-2018 16:57

[Quote]

Свои Год выпуска: 2017
Жанр: Детектив
Выпущено: Россия
Режиссер: Михаил Колпахчиев
В ролях: Антон Васильев, Полина Толстун, Инна Степанова, Ирина Горячева, Анна Лапина, Олег Жилин, Ярослав Воронцов, Степан Бекетов, Игорь Угаров, Игорь Лепихин
О фильме: «СВОИ» — это команда лучших экспертов из разных структур, которые объединились, чтобы разгадывать самые нетривиальные детективные загадки. Судмедэксперт, криминалист, дознаватель, программист, психолог и даже экстрасенс! У каждого из них свой характер, свои слабости и, конечно же, свои суперспособности. Но при этом, как и любой из нас, они обыкновенные живые люди. Они «СВОИ».

Качество: WEBRip
Видео: XviD, ~ 1568 Кбит/с, 720x400, 25 кадр/с
Аудио: AC3, 2 ch, 192 Кбит/с
Продолжительность: 36 x ~ 00:45:00
Перевод: Не требуется
Субтитры: нет

Скриншоты

MediaInfo

General
Complete name : H:\Svoi.2017.WEB-DLRip. Files-x\01.Svoi.2017.WEB-DLRip. Files-x.avi
Format : AVI
Format/Info : Audio Video Interleave
File size : 601 MiB
Duration : 47mn 29s
Overall bit rate : 1 770 Kbps
Writing application : VirtualDubMod 1.5.10.3 | www.virtualdub-fr.org || (build 2550/release)
Writing library : VirtualDubMod build 2550/release
Video
ID : 0
Format : MPEG-4 Visual
Format profile : Advanced Simple@L5
Format settings, BVOP : 1
Format settings, QPel : No
Format settings, GMC : No warppoints
Format settings, Matrix : Custom
Codec ID : XVID
Codec ID/Hint : XviD
Duration : 47mn 29s
Bit rate : 1 568 Kbps
Width : 720 pixels
Height : 400 pixels
Display aspect ratio : 16:9
Frame rate : 25.000 fps
Color space : YUV
Chroma subsampling : 4:2:0
Bit depth : 8 bits
Scan type : Progressive
Compression mode : Lossy
Bits/(Pixel*Frame) : 0.218
Stream size : 533 MiB (89%)
Writing library : XviD 73
Audio
ID : 1
Format : AC-3
Format/Info : Audio Coding 3
Mode extension : CM (complete main)
Codec ID : 2000
Duration : 47mn 29s
Bit rate mode : Constant
Bit rate : 192 Kbps
Channel(s) : 2 channels
Channel positions : Front: L R
Sampling rate : 48.0 KHz
Bit depth : 16 bits
Compression mode : Lossy
Stream size : 65.2 MiB (11%)
Alignment : Split accross interleaves
Interleave, duration : 40 ms (1.00 video frame)
Interleave, preload duration : 500 ms
Релиз от:
[Profile] [PM]
Display posts:    
Reply to topic

Current time is: 22-Apr 18:19

All times are UTC + 3



You cannot post new topics in this forum
You cannot reply to topics in this forum
You cannot edit your posts in this forum
You cannot delete your posts in this forum
You cannot vote in polls in this forum
You cannot attach files in this forum
You cannot download files in this forum