Откровения. Реванш [1-12 серии из 12] (2013) HDTVRip-AVC от Files-x

Reply to topic
 
Author Message

papa1951deda ®

Gender: Male

Longevity: 9 months 26 days

Posts: 290

Location: Казахстан

Post 01-Dec-2018 20:05

[Quote]

Откровения. Реванш Год выпуска: 2012
Жанр: Детектив
Выпущено: Медиагруппа "Звезда"
Режиссёр: Дмитрий Петрунь, Дмитрий Дакович, Иван Лебедев
В ролях: Вера Строкова, Мадлен Джабраилова, Евгений Стычкин, Анатолий Лобоцкий, Мария Баева, Валерий Сторожик, Максим Коновалов, Наталия Курдюбова, Игорь Войнаровский (II), Олег Фомин, Александр Феклистов,Александр Сирин, Максим Виноградов
О фильме: Ее зовут Ева, и она орудие зла. Женщина, для которой рамок приличия не существует: если нужно опорочить приличного человека, она сделает это. Подтолкнуть к предательству, убедить честного лжесвидетельствовать, а миролюбивого взять в руки оружие – Ева с удовольствием устроит все так, что ни одна тень не упадет на заказчика.
Преступление никогда не будет раскрыто, если в помощниках у нарушителей закона есть она - циничная, беспринципная и криминально талантливая.
В каждой серии два актера и одно место действия.
Качество: HDTVRip-AVC
Видео: MPEG 4 AVC, ~ 2000 Кбит/с, 1024x576, 25 кадр/с
Аудио: AC-3, 48000 Hz, ~448 Kbps, 6 канала
Продолжительность: 12 x ~ 00:26:34
Перевод: Не требуется
Субтитры: Нет

Скриншоты

MediaInfo

Общее
Уникальный идентификатор : 177797688460394538473293242708720152149 (0x85C296D770ED88CAAC89335F6C40EE55)
Полное имя : Z:\Откровения. Реванш HDTVRip AVC\Откровения. Реванш 01_серия_HDTVRip_AVC_by_Серый1779.mkv
Формат : Matroska
Версия формата : Version 2
Размер файла : 456 Мбайт
Продолжительность : 26 м.
Общий поток : 2448 Кбит/сек
Дата кодирования : UTC 2015-01-31 17:27:07
Программа кодирования : mkvmerge v6.1.0 ('Old Devil') built on Mar 4 2013 09:10:42
Библиотека кодирования : libebml v1.3.0 + libmatroska v1.4.0
Видео
Идентификатор : 1
Формат : AVC
Формат/Информация : Advanced Video Codec
Профиль формата : High@L4.1
Параметр CABAC формата : Да
Параметр ReFrames формата : 9 кадров
Идентификатор кодека : V_MPEG4/ISO/AVC
Продолжительность : 26 м.
Битрейт : 2000 Кбит/сек
Ширина : 1024 пикселя
Высота : 576 пикселей
Соотношение сторон : 16:9
Режим частоты кадров : Постоянный
Частота кадров : 25,000 кадров/сек
Цветовое пространство : YUV
Субдискретизация насыщенности : 4:2:0
Битовая глубина : 8 бит
Тип развёртки : Прогрессивная
Бит/(Пиксели*Кадры) : 0.136
Размер потока : 364 Мбайт (80%)
Библиотека кодирования : x264 core 130 r2273 b3065e6
Настройки программы : cabac=1 / ref=9 / deblock=1:-2:-1 / analyse=0x3:0x133 / me=umh / subme=9 / psy=1 / psy_rd=1.00:0.15 / mixed_ref=1 / me_range=32 / chroma_me=1 / trellis=2 / 8x8dct=1 / cqm=0 / deadzone=21,11 / fast_pskip=0 / chroma_qp_offset=-3 / threads=3 / lookahead_threads=1 / sliced_threads=0 / nr=0 / decimate=1 / interlaced=0 / bluray_compat=0 / constrained_intra=0 / bframes=9 / b_pyramid=2 / b_adapt=2 / b_bias=0 / direct=1 / weightb=1 / open_gop=0 / weightp=2 / keyint=250 / keyint_min=25 / scenecut=40 / intra_refresh=0 / rc=2pass / mbtree=0 / bitrate=2000 / ratetol=1.0 / qcomp=0.60 / qpmin=0 / qpmax=69 / qpstep=4 / cplxblur=20.0 / qblur=0.5 / ip_ratio=1.40 / pb_ratio=1.30 / aq=2:1.00
Default : Да
Forced : Нет
Основные цвета : BT.709
Характеристики трансфера : BT.709
Коэффициенты матрицы : BT.709
Аудио
Идентификатор : 2
Формат : AC-3
Формат/Информация : Audio Coding 3
Расширение режима : CM (complete main)
Параметр Endianness формата : Big
Идентификатор кодека : A_AC3
Продолжительность : 26 м.
Вид битрейта : Постоянный
Битрейт : 448 Кбит/сек
Каналы : 6 каналов
Расположение каналов : Front: L C R, Side: L R, LFE
Частота : 48,0 КГц
Битовая глубина : 16 бит
Метод сжатия : С потерями
Размер потока : 83,5 Мбайт (18%)
Default : Да
Forced : Нет
Релиз от:
[Profile] [PM]
Display posts:    
Reply to topic

Current time is: 17-Sep 00:28

All times are UTC + 3



You cannot post new topics in this forum
You cannot reply to topics in this forum
You cannot edit your posts in this forum
You cannot delete your posts in this forum
You cannot vote in polls in this forum
You cannot attach files in this forum
You cannot download files in this forum