Забытое преступление [1-2 серии из 2] (2018) WEB-DLRip от Files-x

Reply to topic
 
Author Message

bond74 ®

Gender: Male

Longevity: 9 months 10 days

Posts: 584

Post 01-Dec-2018 20:54

[Quote]

Забытое преступление Год выпуска: 2018
Жанр: Детектив
Выпущено: Россия, АВК Продакшен
Режиссер: Валерия Ивановская
В ролях: Кирилл Жандаров, Илья Ермолов, Софья Лебедева, Евгений Фроленков, Роман Индык, Евгения Ахременко, Кристина Бродская, Марина Денисова
О фильме: Полицейский Валерий Чебров находится в больнице, куда поступил после ранения при задержании опасного преступника-рецидивиста. Лежа на больничной койке, главный герой узнает, что частично потерял память и совершенно не помнит событий последнего месяца. В палату, навестить Валерия, приходит его родной брат Николай, который приносит дурные вести: у него пропала супруга. Мужчина просит Валерия помочь найти Ксению. Валерий начинает собственное расследование и с ужасом обнаруживает, что именно он похитил жену Николая…

Качество: WEB-DLRip
Видео: XviD, ~ 1500 Кбит/с, 720х400, 25 кадр/с
Аудио: AC3, 2 ch, 192 Кбит/с
Продолжительность: 2 х 00:46:00
Перевод: Не требуется
Субтитры: нет

Скриншоты

MediaInfo

General
Общее
Полное имя : D:\закачки\Забытое преступление (2018).WEB-DLRip.Files-x\1.Забытое преступление (2018).WEB-DLRip.Files-x.avi
Формат : AVI
Формат/Информация : Audio Video Interleave
Размер файла : 541 Мбайт
Продолжительность : 44 м. 28 с.
Общий поток : 1702 Кбит/сек
Программа кодирования : VirtualDubMod 1.5.10.3 | www.virtualdub-fr.org || (build 2550/release)
Библиотека кодирования : VirtualDubMod build 2550/release
Видео
Идентификатор : 0
Формат : MPEG-4 Visual
Профиль формата : Advanced Simple@L5
Настройки формата : BVOP1 / Custom Matrix
Параметр BVOP формата : 1
Параметр QPel формата : Нет
Параметр GMC формата : Без точки перехода
Параметр матрицы формата : Выборочная
Идентификатор кодека : XVID
Идентификатор кодека/Подсказка : XviD
Продолжительность : 44 м. 28 с.
Битрейт : 1500 Кбит/сек
Ширина : 720 пикселей
Высота : 400 пикселей
Соотношение сторон : 16:9
Частота кадров : 25,000 кадров/сек
Цветовое пространство : YUV
Субдискретизация насыщенности : 4:2:0
Битовая глубина : 8 бит
Тип развёртки : Прогрессивная
Метод сжатия : С потерями
Бит/(Пиксели*Кадры) : 0.208
Размер потока : 477 Мбайт (88%)
Библиотека кодирования : XviD 73
Аудио
Идентификатор : 1
Формат : AC-3
Формат/Информация : Audio Coding 3
Идентификатор кодека : 2000
Продолжительность : 44 м. 28 с.
Вид битрейта : Постоянный
Битрейт : 192 Кбит/сек
Каналы : 2 канала
Расположение каналов : Front: L R
Частота : 48,0 КГц
Частота кадров : 31,250 кадров/сек (1536 SPF)
Битовая глубина : 16 бит
Метод сжатия : С потерями
Размер потока : 61,1 Мбайт (11%)
Выравнивание : Разделение по промежуткам
Продолжительность промежутка : 40 мс. (1,00 видеокадр)
Время предзагрузки промежутка : 500 мс.
ServiceKind/String : Complete Main
Релиз от:
[Profile] [PM]
Display posts:    
Reply to topic

Current time is: 25-Aug 09:01

All times are UTC + 3



You cannot post new topics in this forum
You cannot reply to topics in this forum
You cannot edit your posts in this forum
You cannot delete your posts in this forum
You cannot vote in polls in this forum
You cannot attach files in this forum
You cannot download files in this forum