Записки экспедитора Тайной канцелярии [2 сезон: 1-8 серии из 8] (2011) HDTVRip-AVC от Files-x

Reply to topic
 
Author Message

papa1951deda ®

Gender: Male

Longevity: 1 year

Posts: 387

Location: Казахстан

Post 01-Dec-2018 21:25

[Quote]

Записки экспедитора Тайной канцелярии Год выпуска: 2011
Жанр: Приключения, история, детектив
Выпущено: Кинокомпания BFT Movie по заказу телеканала ВГТРК
Режиссёр: Олег Рясков
В ролях: Пётр Красилов, Анна Снаткина, Михаил Полицеймако, Сергей Чонишвили, Максим Дахненко, Дарья Мельникова, Илья Соколовский, Андрей Рыклин, Елена Бурлакова, Анастасия Горькова, Анна Носатова, Сергей Лавыгин, Прохор Зикора, Сергей Иволоци, Александр Андриенко, Вячеслав Ганенко, Сергей Неудачин, Сергей Лобынцев, Анастасия Цветанович, Степан Коршунов, Илья Исаев, Илья Ильин, Тарас Епифанцев, Артём Тынкасов, Евгения Ахременко, Анатолий Анищенко, Иван Шибанов, Александр Терешко, Андрей Савостьянов, Дмитрий Саблин, Ильдар Ширазданов, Олег Доброван, Екатерина Юдина, Михаил Белякович, Евгений Бакалов, Наталья Грачёва, Андрей Натоцинский
О фильме: Главный герой сериала – Денис Попов. Он возглавляет работу уголовного розыска в одном из Отделов внутренних дел Москвы. Коллеги Дениса – оперативники Лукин, Могилин и Жуков давно стали сплоченной командой и во всем поддерживают своего шефа - опытного, справедливого, талантливого сыщика. У него рука не дрогнет, нервы не сдадут, а преступник будет найден! Иногда он может сорваться, может послать, а то и врезать, но это его земля, и здесь действуют его правила. Сотрудники отдела Попова расследуют не самые «резонансные» дела; их уровень – это бытовые убийства, грабежи, разбои и кражи - то, что может случиться с каждым. Сыщики - обыкновенные, узнаваемые и не слишком счастливые в личной жизни люди, потому что главное в их жизни – розыск, и ради поиска преступников они порой совсем забывают о себе...
Качество: HDTVRip-AVC
Видео: MPEG 4 AVC, ~ 2000 Кбит/с, 1024x576, 25 кадр/с
Аудио: AC3, 2 ch, 192 Кбит/с
Продолжительность: 8 x ~ 00:45:00
Перевод: Не требуется
Субтитры: Нет

Скриншоты

MediaInfo

General
Unique ID : 251615455198042384009810186639801740828 (0xBD4B5FBC14FD972EBF53C4B93FAA6E1C)
Complete name : D:\моё видио\Zapiski.ekspeditora.tainoy.kancelyarii-2.2011.HDTVRip.(AVC).Files-x\Zapiski.ekspeditora.tainoy.kancelyarii-2.01.2011.HDTVRip.AVC.by.Серый1779.Files-x.mkv
Format : Matroska
Format version : Version 2
File size : 696 MiB
Duration : 44mn 22s
Overall bit rate : 2 194 Kbps
Encoded date : UTC 2015-09-03 15:41:47
Writing application : mkvmerge v5.6.0 ('Kenya Kane') built on Jun 29 2012 15:01:44
Writing library : libebml v1.2.3 + libmatroska v1.3.0
Video
ID : 1
Format : AVC
Format/Info : Advanced Video Codec
Format profile : High@L4.1
Format settings, CABAC : Yes
Format settings, ReFrames : 9 frames
Codec ID : V_MPEG4/ISO/AVC
Duration : 44mn 22s
Bit rate : 2 000 Kbps
Width : 1 024 pixels
Height : 576 pixels
Display aspect ratio : 16:9
Frame rate mode : Constant
Frame rate : 25.000 fps
Color space : YUV
Chroma subsampling : 4:2:0
Bit depth : 8 bits
Scan type : Progressive
Bits/(Pixel*Frame) : 0.136
Stream size : 622 MiB (89%)
Writing library : x264 core 125 r2200 999b753
Encoding settings : cabac=1 / ref=9 / deblock=1:-2:-1 / analyse=0x3:0x133 / me=umh / subme=9 / psy=1 / psy_rd=1.00:0.15 / mixed_ref=1 / me_range=32 / chroma_me=1 / trellis=2 / 8x8dct=1 / cqm=0 / deadzone=21,11 / fast_pskip=0 / chroma_qp_offset=-3 / threads=3 / lookahead_threads=1 / sliced_threads=0 / nr=0 / decimate=1 / interlaced=0 / bluray_compat=0 / constrained_intra=0 / bframes=9 / b_pyramid=2 / b_adapt=2 / b_bias=0 / direct=1 / weightb=1 / open_gop=0 / weightp=2 / keyint=250 / keyint_min=25 / scenecut=40 / intra_refresh=0 / rc_lookahead=50 / rc=2pass / mbtree=1 / bitrate=2000 / ratetol=1.0 / qcomp=0.60 / qpmin=0 / qpmax=69 / qpstep=4 / cplxblur=20.0 / qblur=0.5 / ip_ratio=1.40 / aq=2:1.00
Default : Yes
Forced : No
Color primaries : BT.709
Transfer characteristics : BT.709
Matrix coefficients : BT.709
Audio
ID : 2
Format : AC-3
Format/Info : Audio Coding 3
Mode extension : CM (complete main)
Format settings, Endianness : Big
Codec ID : A_AC3
Duration : 44mn 22s
Bit rate mode : Constant
Bit rate : 192 Kbps
Channel(s) : 2 channels
Channel positions : Front: L R
Sampling rate : 48.0 KHz
Bit depth : 16 bits
Compression mode : Lossy
Stream size : 60.9 MiB (9%)
Default : Yes
Forced : No

Содержание

Записки экспедитора тайной канцелярии: Сезон 1
К князю Меньшикову приезжает посланец ордена масонов с планом женить наследника престола на дочери серого кардинала. В это же время князя посещает молодой офицер Самойлов. Он получает задание, которое, проявив смекалку и отвагу, с блеском выполняет. После этого глава Тайной канцелярии Ушаков обращает внимание на находчивого офицера и благодаря ловкой интриге вынуждает его поступить на службу в свое ведомство. Теперь Ивана ждут головокружительные приключения — охота за серийным убийцей, расследование смерти пожилого дворянина в доме терпимости, попытка разобраться в кознях прародителя зла и др.
Записки Экспедитора Тайной Канцелярии: К берегам Нового Света: Сезон 2
События происходят после смерти Петра Первого. Морской офицер Семен Плахов обвинен в убийстве фискального чиновника. Начальник тайной розыскной канцелярии Ушаков посылает этого офицера с важным поручением, освобождая его из-под стражи. С этого момента начинаются морские приключения. Во втором сезоне фильма присутствуют наряду с новыми героями герои первого сезона. Герои кинофильма побывают в Лондоне, в Новом Свете. Им предстоит сражаться с пиратами, побывать в плену у индейцев. Герои попытаются спасти от позорного рабства красавицу, которую беспутный братец проиграет в карты.
Релиз от:
[Profile] [PM]
Display posts:    
Reply to topic

Current time is: 22-Nov 09:08

All times are UTC + 3



You cannot post new topics in this forum
You cannot reply to topics in this forum
You cannot edit your posts in this forum
You cannot delete your posts in this forum
You cannot vote in polls in this forum
You cannot attach files in this forum
You cannot download files in this forum