Год культуры [1-20 серии из 20] (2018) WEBRip от GeneralFilm

Reply to topic
 
Author Message

vsobbol ®

Gender: Male

Longevity: 1 year

Posts: 366

Location: Донецк

Post 01-Dec-2018 23:21

[Quote]

Год культуры
Год выпуска: 2018
Жанр: комедия
Выпущено: Россия, Comedy Club Production, Art Pictures Vision
Режиссер: Тито Калатозишвили
В ролях: Фёдор Бондарчук, Мария Ахметзянова, Александр Лыков, Александр Яценко, Риналь Мухаметов, Ольга Медынич, Валерия Шкирандо, Александр Обласов, Мария Карпова, Александр Ильин, Иван Мартынов, Игорь Угольников, Виктория Верберг
О фильме: Нерадивый чиновник Виктор Сычев отправляется «в ссылку» на кафедру словесности в региональный вуз. Там ему придется сменить уютное кожаное кресло и просторный кабинет на шаткую табуретку и пыльную аудиторию. Что может быть лучше для служителя Министерства образования, чем полное погружение в это самое образование? И чем может обернуться для высокопоставленного чиновника халатное отношение к собственным обязанностям?

Качество: WEBRip
Видео: XviD build 73, 720x400 (16:9), 25.000 fps, ~ 1550 Kbps (~ 0.215 bit/pixel)
Аудио: 48.0 kHz, AC3, 2/0 ch, 192 kbps
Продолжительность: 20 x ~ 00:45:00
Перевод: Не требуется
Cубтитры: нет

Скриншоты

MediaInfo

General
Complete name : D:\Razdachi\God.Kuljtury.2018.XviD.WEBRip.GeneralFilm\God.Kuljtury.e01.avi
Format : AVI
Format/Info : Audio Video Interleave
File size : 557 MiB
Duration : 44 min 24 s
Overall bit rate : 1 754 kb/s
Writing application : VirtualDubMod 1.5.10.3 | www.virtualdub-fr.org || (build 2550/release)
Writing library : VirtualDubMod build 2550/release
Video
ID : 0
Format : MPEG-4 Visual
Format profile : Advanced Simple@L5
Format settings, BVOP : 1
Format settings, QPel : No
Format settings, GMC : No warppoints
Format settings, Matrix : Custom
Codec ID : XVID
Codec ID/Hint : XviD
Duration : 44 min 24 s
Bit rate : 1 552 kb/s
Width : 720 pixels
Height : 400 pixels
Display aspect ratio : 16:9
Frame rate : 25.000 FPS
Color space : YUV
Chroma subsampling : 4:2:0
Bit depth : 8 bits
Scan type : Progressive
Compression mode : Lossy
Bits/(Pixel*Frame) : 0.216
Stream size : 493 MiB (88%)
Writing library : XviD 73
Audio
ID : 1
Format : AC-3
Format/Info : Audio Coding 3
Format settings, Endianness : Big
Codec ID : 2000
Duration : 44 min 24 s
Bit rate mode : Constant
Bit rate : 192 kb/s
Channel(s) : 2 channels
Channel positions : Front: L R
Sampling rate : 48.0 kHz
Frame rate : 31.250 FPS (1536 SPF)
Bit depth : 16 bits
Compression mode : Lossy
Stream size : 61.0 MiB (11%)
Alignment : Split accross interleaves
Interleave, duration : 40 ms (1.00 video frame)
Interleave, preload duratio : 500 ms
Service kind : Complete Main
Релиз от:


Last edited by vsobbol on 2018-12-02 02:37; edited 1 time in total
[Profile] [PM]
Display posts:    
Reply to topic

Current time is: 10-Dec 01:17

All times are UTC + 3



You cannot post new topics in this forum
You cannot reply to topics in this forum
You cannot edit your posts in this forum
You cannot delete your posts in this forum
You cannot vote in polls in this forum
You cannot attach files in this forum
You cannot download files in this forum