Гранд [1-21 серия из 21] (2018) WEBRip 720p от Files-x

Reply to topic
 
Author Message

bond74 ®

Gender: Male

Longevity: 5 months 8 days

Posts: 311

Post 02-Dec-2018 00:57

[Quote]

Гранд Год выпуска: 2018
Жанр: Комедия
Выпущено: Россия, YBW Group­ по заказу телеканала Супер
Режиссер: Дмитрий Грибанов
В ролях: Александр Лыков, Мила Сивацкая, Константин Белошапка, Ольга Филимонова, Григорий Сиятвинда, Екатерина Вилкова, Елена Ксенофонтова, Милош Бикович, Сергей Лавыгин, Михаил Тарабукин, Ольга Кузьмина, Виктор Хориняк, Диана Пожарская
О фильме: Амбициозная и склонная к авантюрам студентка пятого курса Алтайского университета туризма и отдыха Ксения Завгородняя мечтает работать в гостиничном бизнесе и открыть собственный отель. Но навязчивое внимание ректора ставит под угрозу не только планы Ксюши, но и ее дальнейшее обучение в ВУЗе. Девушка находит смелый, но очень скандальный выход из ситуации, после которого ей приходится спасаться бегством из Барнаула. Ксюша отправляется в Москву в надежде устроиться портье в отель, где работает ее родственник.

Качество: WEBRip 720p
Видео: MPEG-4 AVC, ~ 2927 Кбит/с, 1280x720, 23.976 кадр/с
Аудио: AC3, 2 ch, 192 Кбит/с
Продолжительность: 21 х ~ 00:28:00
Перевод: Не требуется
Субтитры: нет

Скриншоты

MediaInfo

General
Unique ID : 176567800192368538254717862426595180853 (0x84D5B8AB15080154D40F119C38464135)
Complete name : E:\Гранд. (2018) WEB-DL 720p. Files-x\01. Гранд.2018.WEB-DL 720p. Files-x .mkv
Format : Matroska
File size : 644 MiB
Duration : 28mn 16s
Overall bit rate : 3 183 Kbps
Writing application : Lavf54.63.104
Writing library : Lavf54.63.104
Video
ID : 1
Format : AVC
Format/Info : Advanced Video Codec
Format profile : High@L3.1
Format settings, CABAC : Yes
Format settings, ReFrames : 4 frames
Format settings, GOP : M=2, N=15
Codec ID : V_MPEG4/ISO/AVC
Duration : 28mn 16s
Bit rate : 2 927 Kbps
Width : 1 280 pixels
Height : 720 pixels
Display aspect ratio : 16:9
Frame rate mode : Variable
Frame rate : 23.976 fps
Color space : YUV
Chroma subsampling : 4:2:0
Bit depth : 8 bits
Scan type : Progressive
Bits/(Pixel*Frame) : 0.132
Stream size : 592 MiB (92%)
Language : English
Audio
ID : 2
Format : AC-3
Format/Info : Audio Coding 3
Mode extension : CM (complete main)
Codec ID : A_AC3
Duration : 28mn 16s
Bit rate mode : Constant
Bit rate : 192 Kbps
Channel(s) : 2 channels
Channel positions : Front: L R
Sampling rate : 48.0 KHz
Bit depth : 16 bits
Compression mode : Lossy
Stream size : 38.8 MiB (6%)
Релиз от:
[Profile] [PM]
Display posts:    
Reply to topic

Current time is: 23-Apr 10:00

All times are UTC + 3



You cannot post new topics in this forum
You cannot reply to topics in this forum
You cannot edit your posts in this forum
You cannot delete your posts in this forum
You cannot vote in polls in this forum
You cannot attach files in this forum
You cannot download files in this forum