Любопытная Варвара [1-3 сезон: 1-24 серии из 24] (2012-2015) WEB-DLRip от Files-x

Reply to topic
 
Author Message

papa1951deda ®

Gender: Male

Longevity: 10 months 25 days

Posts: 329

Location: Казахстан

Post 02-Dec-2018 09:48

[Quote]

Любопытная Варвара Год выпуска: 2012-2015
Жанр: Детектив, комедия, мелодрама
Выпущено: ООО "Продюсерский центр ПРО100 ФИЛЬМ"
Режиссёр: Роман Барабаш
В ролях: Елена Яковлева, Виталий Хаев, Андрей Кузичев, Даша Волга, Петр Баранчеев, Рамиля Искандер, Иван Качалин, Дмитрий Никонов, Иван Брэд
Описание: В продолжении истории главная героиня, Варвара Ивановна Слуцкая, переезжает жить к своему возлюбленному - бывшему преподавателю в Академии Контрразведки Вязьмину Геннадию Петровичу, а также получает должность внештатного агента ОВД. К столь значительному повороту событий на «рабочем фронте» причастен запомнившийся всем следователь Иван Болотников – друг семьи Слуцких.Удивительные и курьезные истории ожидают нашу героиню как в личной жизни, так и в профессиональной сфере.Безудержная энергия, врожденное любопытство вкупе с деликатностью пожилого учителя теперь уже не просто личные качества героини, а очевидные «козыри» в борьбе с преступностью.
В продолжении истории главная героиня, Варвара Ивановна Слуцкая, переезжает жить к своему возлюбленному - бывшему преподавателю в Академии Контрразведки Вязьмину Геннадию Петровичу, а также получает должность внештатного агента ОВД. К столь значительному повороту событий на «рабочем фронте» причастен запомнившийся всем следователь Иван Болотников – друг семьи Слуцких.Удивительные и курьезные истории ожидают нашу героиню как в личной жизни, так и в профессиональной сфере.Безудержная энергия, врожденное любопытство вкупе с деликатностью пожилого учителя теперь уже не просто личные качества героини, а очевидные «козыри» в борьбе с преступностью.
Качество: WEB-DLRip
Видео: XviD, ~ 1648 Кбит/с, 720x400, 25 кадр/с
Аудио: AC3, 2 ch, 192 Кбит/с
Продолжительность: 24 x ~ 00:44:00
Перевод: Не требуется
Субтитры: Нет

Скриншоты

MediaInfo

General
Complete name : Y:\раздачи\Любопытная Варвара 3.2015.WEB-DLRip.RG.Russkie.serialy.&.Files-x\02.Любопытная Варвара 3.2015.WEB-DLRip.RG.Russkie.serialy.&.Files-x.avi
Format : AVI
Format/Info : Audio Video Interleave
File size : 601 MiB
Duration : 45mn 23s
Overall bit rate : 1 850 Kbps
Writing application : VirtualDubMod 1.5.10.3 | www.virtualdub-fr.org || (build 2550/release)
Writing library : VirtualDubMod build 2550/release
Video
ID : 0
Format : MPEG-4 Visual
Format profile : Advanced Simple@L5
Format settings, BVOP : 1
Format settings, QPel : No
Format settings, GMC : No warppoints
Format settings, Matrix : Custom
Codec ID : XVID
Codec ID/Hint : XviD
Duration : 45mn 23s
Bit rate : 1 648 Kbps
Width : 720 pixels
Height : 400 pixels
Display aspect ratio : 16:9
Frame rate : 25.000 fps
Color space : YUV
Chroma subsampling : 4:2:0
Bit depth : 8 bits
Scan type : Progressive
Compression mode : Lossy
Bits/(Pixel*Frame) : 0.229
Stream size : 535 MiB (89%)
Writing library : XviD 73
Audio
ID : 1
Format : AC-3
Format/Info : Audio Coding 3
Mode extension : CM (complete main)
Format settings, Endianness : Big
Codec ID : 2000
Duration : 45mn 23s
Bit rate mode : Constant
Bit rate : 192 Kbps
Channel(s) : 2 channels
Channel positions : Front: L R
Sampling rate : 48.0 KHz
Compression mode : Lossy
Stream size : 62.3 MiB (10%)
Alignment : Split accross interleaves
Interleave, duration : 40 ms (1.00 video frame)
Interleave, preload duratio : 500 ms
Релиз от:
[Profile] [PM]
Display posts:    
Reply to topic

Current time is: 16-Oct 13:56

All times are UTC + 3



You cannot post new topics in this forum
You cannot reply to topics in this forum
You cannot edit your posts in this forum
You cannot delete your posts in this forum
You cannot vote in polls in this forum
You cannot attach files in this forum
You cannot download files in this forum