Открытие / The Discovery (2017) WEBRip AVC

Reply to topic
 
Author Message

Monk ®

Gender: Male

Longevity: 11 months 3 days

Posts: 9023

Location: Казань

Post 02-Dec-2018 12:07

[Quote]

Открытие / The Discovery Год выпуска: 2017
Жанр: Фантастика, триллер, драма, мелодрама, детектив
Выпущено: США, Endgame Entertainment, NetFlix, Protagonist Pictures
Режиссер: Чарли МакДауэлл
В ролях: Руни Мара, Райли Кио, Роберт Редфорд, Джейсон Сигел, Джесси Племонс, Катери ДеМартино, Рон Кэнада, Марк Бузенски, Брайан МакКарти
О фильме: В далеком будущем ученым удается официально подтвердить существование жизни после смерти. Миллионы людей на Земле решили совершить самоубийство, полагая, что, таким образом, перезагрузят свою жизнь.

Качество: WEBRip AVC
Видео: MPEG-4 AVC, 1662 Кбит/с, 1024x426
Аудио: Русский (AC3, 6 ch, 384 Кбит/с)
Продолжительность: 01:42:01
Перевод: Профессиональный многоголосый [NewStudio]
Субтитры: Русские, английские

Скриншоты



MediaInfo

Общее
Уникальный идентификатор : 70787495899547082115621602965418381686 (0x35412D017F924A48E06EB86185439176)
Полное имя : F:\OlLanDGroup\The.Discovery.2017.WEBRip(AVC).OlLanDGroup.mkv
Формат : Matroska
Версия формата : Version 4 / Version 2
Размер файла : 1,46 Гбайт
Продолжительность : 1 ч. 42 м.
Общий поток : 2045 Кбит/сек
Название фильма : The.Discovery.2017 #TorpedoUK#
Дата кодирования : UTC 2018-11-30 07:33:46 / UTC 2017-03-31T18:39:17Z
Программа кодирования : mkvmerge v25.0.0 ('Prog Noir') 64-bit
Библиотека кодирования : libebml v1.3.6 + libmatroska v1.4.9 / Lavf55.12.0
Обложка : Yes
Attachments : small_cover.jpg / small_cover_land.jpg / cover.jpg / cover_land.jpg
Видео
Идентификатор : 1
Формат : AVC
Формат/Информация : Advanced Video Codec
Профиль формата : High@L4.1
Параметр CABAC формата : Да
Параметр ReFrames формата : 10 кадров
Идентификатор кодека : V_MPEG4/ISO/AVC
Продолжительность : 1 ч. 42 м.
Битрейт : 1662 Кбит/сек
Ширина : 1024 пикселя
Высота : 426 пикселей
Соотношение сторон : 2,40:1
Режим частоты кадров : Постоянный
Частота кадров : 23,976 (24000/1001) кадра/сек
Цветовое пространство : YUV
Субдискретизация насыщенности : 4:2:0
Битовая глубина : 8 бит
Тип развёртки : Прогрессивная
Бит/(Пиксели*Кадры) : 0.159
Размер потока : 1,16 Гбайт (79%)
Библиотека кодирования : x264 core 146 r2538 121396c
Настройки программы : cabac=1 / ref=10 / deblock=1:-2:-3 / analyse=0x3:0x113 / me=umh / subme=10 / psy=1 / psy_rd=0.95:0.07 / mixed_ref=1 / me_range=48 / chroma_me=1 / trellis=2 / 8x8dct=1 / cqm=0 / deadzone=21,11 / fast_pskip=1 / chroma_qp_offset=-3 / threads=6 / lookahead_threads=1 / sliced_threads=0 / nr=0 / decimate=1 / interlaced=0 / bluray_compat=0 / constrained_intra=0 / bframes=11 / b_pyramid=2 / b_adapt=2 / b_bias=0 / direct=3 / weightb=1 / open_gop=0 / weightp=2 / keyint=240 / keyint_min=23 / scenecut=40 / intra_refresh=0 / rc_lookahead=40 / rc=2pass / mbtree=0 / bitrate=1662 / ratetol=1.0 / qcomp=0.60 / qpmin=0 / qpmax=69 / qpstep=4 / cplxblur=20.0 / qblur=0.5 / vbv_maxrate=50000 / vbv_bufsize=62500 / nal_hrd=none / filler=0 / ip_ratio=1.40 / pb_ratio=1.30 / aq=1:1.00
Default : Да
Forced : Нет
Statistics Tags Issue : mkvmerge v25.0.0 ('Prog Noir') 64-bit 2018-11-30 07:33:46 / mkvmerge v25.0.0 ('Prog Noir') 64-bit 2018-11-30 07:33:46 / UTC 2017-03-31T18:39:17Z
FromStats_BitRate : 1660185
FromStats_Duration : 01:42:00.531000000
FromStats_FrameCount : 146746
FromStats_StreamSize : 1270152245
Аудио
Идентификатор : 2
Формат : AC-3
Формат/Информация : Audio Coding 3
Расширение режима : CM (complete main)
Параметр Endianness формата : Big
Идентификатор кодека : A_AC3
Продолжительность : 1 ч. 42 м.
Вид битрейта : Постоянный
Битрейт : 384 Кбит/сек
Каналы : 6 каналов
Расположение каналов : Front: L C R, Side: L R, LFE
Частота : 48,0 КГц
Частота кадров : 31,250 кадров/сек (1536 spf)
Битовая глубина : 16 бит
Метод сжатия : С потерями
Размер потока : 280 Мбайт (19%)
Заголовок : MVO [NewStudio]
Язык : Russian
Default : Да
Forced : Нет
Statistics Tags Issue : mkvmerge v25.0.0 ('Prog Noir') 64-bit 2018-11-30 07:33:46 / mkvmerge v25.0.0 ('Prog Noir') 64-bit 2018-11-30 07:33:46 / UTC 2017-03-31T18:39:17Z
FromStats_BitRate : 384000
FromStats_Duration : 01:42:03.968000000
FromStats_FrameCount : 191374
FromStats_StreamSize : 293950464
Текст #1
Идентификатор : 3
Формат : UTF-8
Идентификатор кодека : S_TEXT/UTF8
Идентификатор кодека/Информация : UTF-8 Plain Text
Заголовок : Full
Язык : Russian
Default : Нет
Forced : Нет
Statistics Tags Issue : mkvmerge v25.0.0 ('Prog Noir') 64-bit 2018-11-30 07:33:46 / mkvmerge v25.0.0 ('Prog Noir') 64-bit 2018-11-30 07:33:46 / UTC 2017-03-31T18:39:17Z
FromStats_BitRate : 95
FromStats_Duration : 01:34:56.149000000
FromStats_FrameCount : 1151
FromStats_StreamSize : 68292
Текст #2
Идентификатор : 4
Формат : UTF-8
Идентификатор кодека : S_TEXT/UTF8
Идентификатор кодека/Информация : UTF-8 Plain Text
Заголовок : Full
Язык : English
Default : Нет
Forced : Нет
Statistics Tags Issue : mkvmerge v25.0.0 ('Prog Noir') 64-bit 2018-11-30 07:33:46 / mkvmerge v25.0.0 ('Prog Noir') 64-bit 2018-11-30 07:33:46 / UTC 2017-03-31T18:39:17Z
FromStats_BitRate : 61
FromStats_Duration : 01:41:08.437000000
FromStats_FrameCount : 1204
FromStats_StreamSize : 46708
[Profile] [PM]
Display posts:    
Reply to topic

Current time is: 18-Oct 05:32

All times are UTC + 3



You cannot post new topics in this forum
You cannot reply to topics in this forum
You cannot edit your posts in this forum
You cannot delete your posts in this forum
You cannot vote in polls in this forum
You cannot attach files in this forum
You cannot download files in this forum