Двойная мята / Daburu mintsu (Double Mints) (2017) BDRip 720p

Reply to topic
 
Author Message

Monk ®

Gender: Male

Longevity: 9 months 10 days

Posts: 7980

Location: Казань

Post 02-Dec-2018 13:27

[Quote]

Двойная мята / Daburu mintsu (Double Mints) Год выпуска: 2017
Жанр: Криминал, драма, мелодрама
Выпущено: Япония, Arc Films, Fortune Entertainment, NAC (II), Parco Co. Ltd., Pony Canyon Enterprises (I), Starcat Cable Network, TBS Service, U-Next
Режиссер: Эйджи Учида
В ролях: Ясуши Фучиками, Шунпеи Кавагоиши, Шигемицу Оги, Кента Суга, Кадзуя Такахаши, Шунсуке Танака, Ами Томитэ
О фильме: Задержавшийся на работе Мицуо Итикава получает телефонный звонок: «Я убил женщину. Ты поможешь мне избавиться от трупа». Человека на том конце трубки тоже зовут Мицуо Итикава. Много лет назад они учились вместе, и их связывали странные отношения. Тогда один Мицуо поклялся другому, что будет ему служить и навсегда останется тому верным псом. Теперь наступил момент, когда придётся ответить за свои слова.

Качество: BDRip 720p
Видео: MPEG-4 AVC, 4980 Кбит/с, 1280x536
Аудио: Русский (AC3, 2 ch, 640 Кбит/с), японский (AC3, 6 ch, 640 Кбит/с)
Продолжительность: 01:41:40
Перевод: Любительский многоголосый [Храм Дорам]
Субтитры: Английские, китайские

Скриншоты


MediaInfo

General
Unique ID : 220478875117430137408813584492069117954 (0xA5DEAFD01DAE5A4391B04D0F158BE002)
Complete name : Двойная мята.2017.MVO.720p.BluRay.x264-WiKi.mkv
Format : Matroska
Format version : Version 4
File size : 4.45 GiB
Duration : 1 h 41 min
Overall bit rate : 6 271 kb/s
Movie name : Double Mints [2017] [720p] MVO
Encoded date : UTC 2018-11-30 12:38:52
Writing application : mkvmerge v7.8.0 ('River Man') 32bit built on Mar 27 2015 16:18:02
Writing library : libebml v1.3.1 + libmatroska v1.4.2
Attachments : AsapCondensed-Medium.ttf / AsapCondensed-MediumItalic.ttf / 方正粗雅宋_GBK.TTF
DIRECTOR : Eiji Uchida
GENRE : Romance
IMDB : tt6488382
KEYWORDS : rutracker.org , RG Orient Extreme Films , profile.php?mode=viewprofile&u=22488948
Video
ID : 1
Format : AVC
Format/Info : Advanced Video Codec
Format profile : High@L4.1
Format settings : CABAC / 12 Ref Frames
Format settings, CABAC : Yes
Format settings, RefFrames : 12 frames
Codec ID : V_MPEG4/ISO/AVC
Duration : 1 h 41 min
Bit rate : 4 980 kb/s
Width : 1 280 pixels
Height : 536 pixels
Display aspect ratio : 2.40:1
Frame rate mode : Constant
Frame rate : 23.976 (24000/1001) FPS
Color space : YUV
Chroma subsampling : 4:2:0
Bit depth : 8 bits
Scan type : Progressive
Bits/(Pixel*Frame) : 0.303
Stream size : 3.46 GiB (78%)
Title : 720p @ Jubowo @ WiKi
Writing library : x264 core 129 r2245+704+36 8e61944 tMod+MixAQ [8-bit@4:2:0 X86_64]
Encoding settings : cabac=1 / ref=12 / deblock=1:-3:-3 / analyse=0x3:0x133 / me=umh / subme=11 / psy=1 / fade_compensate=0.00 / psy_rd=1.05:0.10 / mixed_ref=1 / me_range=32 / chroma_me=1 / trellis=2 / 8x8dct=1 / cqm=0 / deadzone=21,11 / fast_pskip=0 / chroma_qp_offset=-3 / threads=12 / lookahead_threads=2 / sliced_threads=0 / nr=0 / decimate=0 / interlaced=0 / bluray_compat=0 / constrained_intra=0 / fgo=0 / bframes=10 / b_pyramid=2 / b_adapt=2 / b_bias=0 / direct=3 / weightb=1 / open_gop=0 / weightp=2 / keyint=250 / keyint_min=23 / scenecut=40 / intra_refresh=0 / rc=2pass / mbtree=0 / bitrate=4980 / ratetol=1.0 / qcomp=0.70 / qpmin=0 / qpmax=69 / qpstep=4 / cplxblur=20.0 / qblur=0.5 / ip_ratio=1.40 / pb_ratio=1.30 / aq=1 / aq-strength=0.90 / aq-sensitivity=10.00 / aq-ifactor=1.00 / aq-pfactor=1.00 / aq-bfactor=1.00 / aq2=0
Language : Japanese
Default : Yes
Forced : No
Audio #1
ID : 2
Format : AC-3
Format/Info : Audio Coding 3
Commercial name : Dolby Digital
Codec ID : A_AC3
Duration : 1 h 41 min
Bit rate mode : Constant
Bit rate : 640 kb/s
Channel(s) : 2 channels
Channel layout : L R
Sampling rate : 48.0 kHz
Frame rate : 31.250 FPS (1536 SPF)
Bit depth : 16 bits
Compression mode : Lossy
Stream size : 465 MiB (10%)
Title : MVO [Храм Дорам]
Language : Russian
Service kind : Complete Main
Default : Yes
Forced : No
Audio #2
ID : 3
Format : AC-3
Format/Info : Audio Coding 3
Commercial name : Dolby Digital
Codec ID : A_AC3
Duration : 1 h 41 min
Bit rate mode : Constant
Bit rate : 640 kb/s
Channel(s) : 6 channels
Channel layout : L R C LFE Ls Rs
Sampling rate : 48.0 kHz
Frame rate : 31.250 FPS (1536 SPF)
Bit depth : 16 bits
Compression mode : Lossy
Stream size : 465 MiB (10%)
Language : Japanese
Service kind : Complete Main
Default : No
Forced : No
Text #1
ID : 4
Format : ASS
Codec ID : S_TEXT/ASS
Codec ID/Info : Advanced Sub Station Alpha
Compression mode : Lossless
Title : fansub by sacchanxd
Language : English
Default : No
Forced : No
Text #2
ID : 5
Format : ASS
Codec ID : S_TEXT/ASS
Codec ID/Info : Advanced Sub Station Alpha
Compression mode : Lossless
Title : Simplified
Language : Chinese
Default : No
Forced : No
Text #3
ID : 6
Format : ASS
Codec ID : S_TEXT/ASS
Codec ID/Info : Advanced Sub Station Alpha
Compression mode : Lossless
Title : Traditional
Language : Chinese
Default : No
Forced : No
Menu
00:00:00.000 : en:00:00:00.000
00:06:58.417 : en:00:06:58.417
00:12:34.044 : en:00:12:34.044
00:18:52.506 : en:00:18:52.506
00:22:38.982 : en:00:22:38.982
00:26:00.016 : en:00:26:00.016
00:31:01.693 : en:00:31:01.693
00:39:53.974 : en:00:39:53.974
00:47:15.624 : en:00:47:15.624
00:56:10.075 : en:00:56:10.075
01:01:29.435 : en:01:01:29.435
01:05:45.066 : en:01:05:45.066
01:14:23.625 : en:01:14:23.625
01:19:15.876 : en:01:19:15.876
01:27:26.366 : en:01:27:26.366
01:33:22.888 : en:01:33:22.888
[Profile] [PM]
Display posts:    
Reply to topic

Current time is: 25-Aug 09:03

All times are UTC + 3



You cannot post new topics in this forum
You cannot reply to topics in this forum
You cannot edit your posts in this forum
You cannot delete your posts in this forum
You cannot vote in polls in this forum
You cannot attach files in this forum
You cannot download files in this forum