#Dетки [1-10 серии из 10] (2019) WEB-DLRip от GeneralFilm

Reply to topic
 
Author Message

vsobbol ®

Gender: Male

Longevity: 1 year

Posts: 369

Location: Донецк

Post 01-Oct-2019 23:28

[Quote]

#Dетки
Год выпуска: 2019
Жанр: Драма, детектив
Выпущено: Россия, Кинокомпания «Tempo Phythm»
Режиссер: Вазген Каграманян
В ролях: Катерина Шпица, Валерия Репина, Михаил Химичев, Фёдор Бавтриков, Константин Юшкевич, Максим Лагашкин, Евгений Токарев, Севастьян Смышников, Глеб Калюжный, Грант Каграманян
О фильме: У Лины все замечательно: модный блог о психологии подростков, обложки журналов и вообще аура успеха. У Киры все ровно: школа бесит, но это пройдет, а пока можно жить в сети и там же подрабатывать взломом чужих аккаунтов. Норма превратится в хаос, когда они столкнутся с маньяком, действующим исключительно онлайн. Кире и Лине придется попытаться действовать вместе и не убить друг друга, чтобы выйти на того, кто убивает подростков.
Качество: WEB-DLRip
Видео: XviD build 73, 720x304 (2.37:1), 25.000 fps, ~ 1700 Kbps (~ 0.310 bit/pixel)
Аудио: 48.0 kHz, AC3, 2/0 ch, 192 kbps
Продолжительность: 10 х ~ 00:32:00
Перевод: Не требуется [Русский]
Cубтитры: нет

Скриншоты

MediaInfo

General
Complete name : D:\Razdachi\Detki.2019.WEB-DLRip.GeneralFilm\Detki.e01.avi
Format : AVI
Format/Info : Audio Video Interleave
File size : 445 MiB
Duration : 32 min 40 s
Overall bit rate : 1 906 kb/s
Writing application : VirtualDubMod 1.5.10.3 | www.virtualdub-fr.org || (build 2550/release)
Writing library : VirtualDubMod build 2550/release
Video
ID : 0
Format : MPEG-4 Visual
Format profile : Advanced Simple@L5
Format settings : BVOP1 / Custom Matrix
Format settings, BVOP : 1
Format settings, QPel : No
Format settings, GMC : No warppoints
Format settings, Matrix : Custom
Codec ID : XVID
Codec ID/Hint : XviD
Duration : 32 min 40 s
Bit rate : 1 704 kb/s
Width : 720 pixels
Height : 304 pixels
Display aspect ratio : 2.35:1
Frame rate : 25.000 FPS
Color space : YUV
Chroma subsampling : 4:2:0
Bit depth : 8 bits
Scan type : Progressive
Compression mode : Lossy
Bits/(Pixel*Frame) : 0.311
Stream size : 398 MiB (89%)
Writing library : XviD 73
Audio
ID : 1
Format : AC-3
Format/Info : Audio Coding 3
Commercial name : Dolby Digital
Codec ID : 2000
Duration : 32 min 40 s
Bit rate mode : Constant
Bit rate : 192 kb/s
Channel(s) : 2 channels
Channel layout : L R
Sampling rate : 48.0 kHz
Frame rate : 31.250 FPS (1536 SPF)
Bit depth : 16 bits
Compression mode : Lossy
Stream size : 44.9 MiB (10%)
Alignment : Split accross interleaves
Interleave, duration : 40 ms (1.00 video frame)
Interleave, preload duratio : 500 ms
Service kind : Complete Main
Релиз от:
[Profile] [PM]
Display posts:    
Reply to topic

Current time is: 14-Dec 12:07

All times are UTC + 3



You cannot post new topics in this forum
You cannot reply to topics in this forum
You cannot edit your posts in this forum
You cannot delete your posts in this forum
You cannot vote in polls in this forum
You cannot attach files in this forum
You cannot download files in this forum