Криминальный город / Beomjoi dosi (The Outlaws) (2017) BDRip 720p

Reply to topic
 
Author Message

Monk ®

Gender: Male

Longevity: 7 months 12 days

Posts: 7143

Location: Казань

Post 02-Dec-2018 13:33

[Quote]

Криминальный город / Beomjoi dosi (The Outlaws) Год выпуска: 2017
Жанр: Боевик, криминал, триллер
Выпущено: Корея Южная, BA Entertainment, Hong Film
Режиссер: Юн Сон Кан
В ролях: Дон Сок Ма, Кё Сан Юн, Чжэ Юн Чо, Гви Хва Чхве, Чжи Хван Пак, Ки Чжун Хон, Ха Чжун Сон, Дон Вон Хо, Сон Гю Чжин, Хён Чжун Им, Сон Тэ Хо, Ин Ги Чон, Чжин Ун Чо, Чжи Сон Ом
О фильме: В 2004 году в китайском квартале Сеула, печально известном высоким уровнем преступности, объявляются 3 особо борзых мигранта-коллектора и вместо того, чтобы по старинке изымать деньги у должников, сразу убивают главу одной из преступных группировок. Свято место пусто не бывает, и вот уже предводитель троицы Цзян Чэнь руководит этой бандой и пытается отжать бизнес у конкурентов. Местный начальник следственно-оперативной группы Ма Сок-до привык поддерживать худой мир на подконтрольной территории, но Цзян Чэнь мирно жить не хочет.

Качество: BDRip 720p
Видео: MPEG-4 AVC, 5729 Кбит/с, 1280x536
Аудио: Русский (АС3, 2 ch, 192 Кбит/с), корейский (АС3, 6 ch, 640 Кбит/с)
Продолжительность: 02:01:07
Перевод: Любительский многоголосый [GreenРай Studio], любительский двухголосый [КОЛОБОК]
Субтитры: Русские, английские

Скриншоты


MediaInfo

General
Unique ID : 220719078017351544787432067153738993064 (0xA60CF2BAF2F45B1FAD714F9ED5260DA8)
Complete name : Криминальный город.2017.MVO.720p.BluRay.x264-HDChina.mkv
Format : Matroska
Format version : Version 4
File size : 5.83 GiB
Duration : 2 h 1 min
Overall bit rate : 6 890 kb/s
Movie name : The Outlaws [2017] [720p] MVO, DVO, RUSSUB
Encoded date : UTC 2018-11-21 16:03:37
Writing application : mkvmerge v7.8.0 ('River Man') 32bit built on Mar 27 2015 16:18:02
Writing library : libebml v1.3.1 + libmatroska v1.4.2
Attachments : calibriz_1.ttf / calibrib_1.ttf / JakobCTT Regular.ttf / Bird House.otf / Baltimore-Nouveau.ttf / AA-BebasNeue.ttf
Video
ID : 1
Format : AVC
Format/Info : Advanced Video Codec
Format profile : High@L4.1
Format settings : CABAC / 12 Ref Frames
Format settings, CABAC : Yes
Format settings, RefFrames : 12 frames
Codec ID : V_MPEG4/ISO/AVC
Duration : 2 h 1 min
Bit rate : 5 729 kb/s
Width : 1 280 pixels
Height : 536 pixels
Display aspect ratio : 2.40:1
Frame rate mode : Constant
Frame rate : 23.976 (24000/1001) FPS
Color space : YUV
Chroma subsampling : 4:2:0
Bit depth : 8 bits
Scan type : Progressive
Bits/(Pixel*Frame) : 0.348
Stream size : 4.85 GiB (83%)
Title : profile.php?mode=viewprofile&u=22488948 || RG Orient Extreme Films
Writing library : x264 core 152 r2851kMod ba24899
Encoding settings : cabac=1 / ref=12 / deblock=1:-3:-3 / analyse=0x3:0x133 / me=umh / subme=11 / psy=1 / fade_compensate=0.00 / psy_rd=1.05:0.00 / mixed_ref=1 / me_range=48 / chroma_me=1 / trellis=2 / 8x8dct=1 / cqm=0 / deadzone=21,11 / fast_pskip=0 / chroma_qp_offset=-2 / threads=12 / lookahead_threads=2 / sliced_threads=0 / nr=0 / decimate=0 / interlaced=0 / bluray_compat=0 / constrained_intra=0 / bframes=8 / b_pyramid=2 / b_adapt=2 / b_bias=0 / direct=3 / weightb=1 / open_gop=0 / weightp=2 / keyint=240 / keyint_min=2 / scenecut=40 / intra_refresh=0 / rc_lookahead=60 / rc=crf / mbtree=0 / crf=17.0000 / qcomp=0.70 / qpmin=0 / qpmax=69 / qpstep=4 / vbv_maxrate=50000 / vbv_bufsize=30000 / crf_max=0.0 / nal_hrd=none / filler=0 / ip_ratio=1.30 / pb_ratio=1.20 / aq=3:0.85
Language : Korean
Default : Yes
Forced : No
Audio #1
ID : 2
Format : AC-3
Format/Info : Audio Coding 3
Commercial name : Dolby Digital
Codec ID : A_AC3
Duration : 2 h 1 min
Bit rate mode : Constant
Bit rate : 192 kb/s
Channel(s) : 2 channels
Channel layout : L R
Sampling rate : 48.0 kHz
Frame rate : 31.250 FPS (1536 SPF)
Bit depth : 16 bits
Compression mode : Lossy
Stream size : 166 MiB (3%)
Title : MVO [GreenРай Studio]
Language : Russian
Service kind : Complete Main
Default : Yes
Forced : No
Audio #2
ID : 3
Format : AC-3
Format/Info : Audio Coding 3
Commercial name : Dolby Digital
Codec ID : A_AC3
Duration : 2 h 1 min
Bit rate mode : Constant
Bit rate : 192 kb/s
Channel(s) : 2 channels
Channel layout : L R
Sampling rate : 48.0 kHz
Frame rate : 31.250 FPS (1536 SPF)
Bit depth : 16 bits
Compression mode : Lossy
Stream size : 166 MiB (3%)
Title : DVO [den904, DeadSno]
Language : Russian
Service kind : Complete Main
Default : No
Forced : No
Audio #3
ID : 4
Format : AC-3
Format/Info : Audio Coding 3
Commercial name : Dolby Digital
Codec ID : A_AC3
Duration : 2 h 1 min
Bit rate mode : Constant
Bit rate : 640 kb/s
Channel(s) : 6 channels
Channel layout : L R C LFE Ls Rs
Sampling rate : 48.0 kHz
Frame rate : 31.250 FPS (1536 SPF)
Bit depth : 16 bits
Compression mode : Lossy
Stream size : 554 MiB (9%)
Language : Korean
Service kind : Complete Main
Default : No
Forced : No
Text #1
ID : 5
Format : ASS
Codec ID : S_TEXT/ASS
Codec ID/Info : Advanced Sub Station Alpha
Compression mode : Lossless
Title : ФСГ 'cardinals'
Language : Russian
Default : No
Forced : No
Text #2
ID : 6
Format : UTF-8
Codec ID : S_TEXT/UTF8
Codec ID/Info : UTF-8 Plain Text
Language : English
Default : No
Forced : No
Menu
00:00:00.000 : en:Chapter 1
00:10:35.635 : en:Chapter 2
00:20:01.992 : en:Chapter 3
00:27:16.051 : en:Chapter 4
00:34:13.968 : en:Chapter 5
00:43:32.109 : en:Chapter 6
00:54:11.164 : en:Chapter 7
01:03:30.848 : en:Chapter 8
01:12:20.210 : en:Chapter 9
01:19:29.389 : en:Chapter 10
01:25:37.882 : en:Chapter 11
01:32:26.290 : en:Chapter 12
01:39:07.232 : en:Chapter 13
01:46:26.671 : en:Chapter 14
01:55:29.589 : en:Chapter 15
[Profile] [PM]
Display posts:    
Reply to topic

Current time is: 26-Jun 13:57

All times are UTC + 3



You cannot post new topics in this forum
You cannot reply to topics in this forum
You cannot edit your posts in this forum
You cannot delete your posts in this forum
You cannot vote in polls in this forum
You cannot attach files in this forum
You cannot download files in this forum