Качели [1-2 серии из 2] (2017) WEB-DLRip-AVC от Files-x

Reply to topic
 
Author Message

papa1951deda ®

Gender: Male

Longevity: 9 months 2 days

Posts: 277

Location: Казахстан

Post 02-Dec-2018 14:05

[Quote]

Качели Год выпуска: 2017
Жанр: Драма, мелодрама
Выпущено: Кинокомпания "Паламеда Продакшн", «Фабула Продакшн»
Режиссёр: Екатерина Двигубская
В ролях: Валерия Бурдужа, Борис Хвошнянский, Татьяна Колганова, Артем Курень, Юлианна Михневич, Светлана Аникей, Ольга Сизова, Дмитрий Егоров (III)
О фильме: После выпускного Киру Алексееву (Валерия Бурдужа) изнасиловал ее одноклассник Никита. Кира забеременела и решила сделать аборт, но передумала. На почве переживаний от сердечного приступа умирает мать Киры (Татьяна Колганова). Перед смертью она рассказывает дочери про отца – бизнесмена Гарая (Борис Хвошнянский) из Москвы. Узнав о том, что Кира так и не сделала аборт мать Никиты — влиятельная чиновница Зарецкая (Ольга Сизова) предлагает героине деньги и угрожает. Но Кира отказывается убивать своих детей. У нее будут близнецы.
Качество: WEB-DLRip-AVC
Видео: MPEG 4 AVC, ~ 1600 Кбит/с, 1024x576, 25 кадр/с
Аудио: AC3, 2 ch, 192 Кбит/с
Продолжительность: 2 x ~ 01:30:00
Перевод: Не требуется
Субтитры: Нет

Скриншоты

MediaInfo

General
Unique ID : 250420602866810620202345838231042253154 (0xBC6540F76A82E315BC3E0FCDE96DE162)
Complete name : D:\моё видио\Kacheli.(2017).WEB-DLRip.(AVC).Files-x\01.Качели.(2017).WEB-DLRip.(AVC).by.Серый1779.Files-x.mkv
Format : Matroska
Format version : Version 2
File size : 1.14 GiB
Duration : 1h 31mn
Overall bit rate : 1 794 Kbps
Encoded date : UTC 2017-11-26 03:39:46
Writing application : mkvmerge v7.8.0 ('River Man') 32bit built on Apr 3 2015 12:11:22
Writing library : libebml v1.3.1 + libmatroska v1.4.2
Video
ID : 1
Format : AVC
Format/Info : Advanced Video Codec
Format profile : High@L4.1
Format settings, CABAC : Yes
Format settings, ReFrames : 9 frames
Codec ID : V_MPEG4/ISO/AVC
Duration : 1h 31mn
Bit rate : 1 600 Kbps
Width : 1 024 pixels
Height : 576 pixels
Display aspect ratio : 16:9
Frame rate mode : Constant
Frame rate : 25.000 fps
Color space : YUV
Chroma subsampling : 4:2:0
Bit depth : 8 bits
Scan type : Progressive
Bits/(Pixel*Frame) : 0.109
Stream size : 1 021 MiB (87%)
Writing library : x264 core 146 r2538 121396c
Encoding settings : cabac=1 / ref=9 / deblock=1:-2:-1 / analyse=0x3:0x133 / me=umh / subme=9 / psy=1 / psy_rd=1.00:0.15 / mixed_ref=1 / me_range=32 / chroma_me=1 / trellis=2 / 8x8dct=1 / cqm=0 / deadzone=21,11 / fast_pskip=0 / chroma_qp_offset=-3 / threads=18 / lookahead_threads=3 / sliced_threads=0 / nr=0 / decimate=1 / interlaced=0 / bluray_compat=0 / constrained_intra=0 / bframes=9 / b_pyramid=2 / b_adapt=2 / b_bias=0 / direct=1 / weightb=1 / open_gop=0 / weightp=2 / keyint=250 / keyint_min=25 / scenecut=40 / intra_refresh=0 / rc=2pass / mbtree=0 / bitrate=1600 / ratetol=1.0 / qcomp=0.60 / qpmin=0 / qpmax=69 / qpstep=4 / cplxblur=20.0 / qblur=0.5 / ip_ratio=1.40 / pb_ratio=1.30 / aq=2:1.00
Default : Yes
Forced : No
Color primaries : BT.709
Transfer characteristics : BT.709
Matrix coefficients : BT.709
Audio
ID : 2
Format : AC-3
Format/Info : Audio Coding 3
Mode extension : CM (complete main)
Format settings, Endianness : Big
Codec ID : A_AC3
Duration : 1h 31mn
Bit rate mode : Constant
Bit rate : 192 Kbps
Channel(s) : 2 channels
Channel positions : Front: L R
Sampling rate : 44.1 KHz
Bit depth : 16 bits
Compression mode : Lossy
Stream size : 125 MiB (11%)
Default : Yes
Forced : No
Релиз от:
[Profile] [PM]
Display posts:    
Reply to topic

Current time is: 22-Aug 22:04

All times are UTC + 3



You cannot post new topics in this forum
You cannot reply to topics in this forum
You cannot edit your posts in this forum
You cannot delete your posts in this forum
You cannot vote in polls in this forum
You cannot attach files in this forum
You cannot download files in this forum