Входя в дом, оглянись [1-8 серии из 8] (2019) WEBRip от Files-x

Reply to topic
 
Author Message

bond74 ®

Gender: Male

Longevity: 11 months 5 days

Posts: 664

Post 08-Oct-2019 01:54

[Quote]

Входя в дом, оглянись Год выпуска: 2019
Жанр: Мелодрама
Выпущено: Россия, Маркес
Режиссер: Андрей Малюков
В ролях: Екатерина Гусева, Александр Домогаров, Владимир Гуськов, Кристина Асмус, Анна Уколова, Василий Мищенко, Александр Марушев, Анастасия Дьячук, Вячеслав Ковалёв
О фильме: В семье Антонины и Михаила Савостиных — самой богатой в районе — налицо мезальянс. Антонина слишком молода и красива для своего пожилого мужа. Но совместный бизнес и деньги порой привязывают людей крепче самой большой любви. Так бы и жили Савостины, если бы не приехал однажды к ним дальний родственник Артур.
Качество: WEBRip
Видео: XviD, ~ 1600 Кбит/с, 720x304
Аудио: AC3, 2 ch, 192 Кбит/с
Продолжительность: 8 x ~ 00:45:00
Перевод: Не требуется
Субтитры: нет

Скриншоты

MediaInfo

General
Complete name : C:\00\6354\ Входя в дом, оглянись .2019 WEB-DLRip. Files-x\01. Входя в дом, оглянись .2019 WEB-DLRip. Files-x.avi
Format : AVI
Format/Info : Audio Video Interleave
File size : 646 MiB
Duration : 50mn 7s
Overall bit rate : 1 802 Kbps
Writing application : VirtualDubMod 1.5.10.3 | www.virtualdub-fr.org || (build 2550/release)
Writing library : VirtualDubMod build 2550/release
Video
ID : 0
Format : MPEG-4 Visual
Format profile : Advanced Simple@L5
Format settings, BVOP : 1
Format settings, QPel : No
Format settings, GMC : No warppoints
Format settings, Matrix : Custom
Codec ID : XVID
Codec ID/Hint : XviD
Duration : 50mn 7s
Bit rate : 1 600 Kbps
Width : 720 pixels
Height : 304 pixels
Display aspect ratio : 2.35:1
Frame rate : 25.000 fps
Color space : YUV
Chroma subsampling : 4:2:0
Bit depth : 8 bits
Scan type : Progressive
Compression mode : Lossy
Bits/(Pixel*Frame) : 0.292
Stream size : 574 MiB (89%)
Writing library : XviD 73
Audio
ID : 1
Format : AC-3
Format/Info : Audio Coding 3
Mode extension : CM (complete main)
Codec ID : 2000
Duration : 50mn 7s
Bit rate mode : Constant
Bit rate : 192 Kbps
Channel(s) : 2 channels
Channel positions : Front: L R
Sampling rate : 48.0 KHz
Bit depth : 16 bits
Compression mode : Lossy
Stream size : 68.8 MiB (11%)
Alignment : Split accross interleaves
Interleave, duration : 40 ms (1.00 video frame)
Interleave, preload duration : 500 ms
Релиз от:
[Profile] [PM]
Display posts:    
Reply to topic

Current time is: 19-Oct 21:34

All times are UTC + 3



You cannot post new topics in this forum
You cannot reply to topics in this forum
You cannot edit your posts in this forum
You cannot delete your posts in this forum
You cannot vote in polls in this forum
You cannot attach files in this forum
You cannot download files in this forum