Условный мент [1-20 серии из 24] (2019) WEBRip 720p от Files-x

Reply to topic
 
Author Message

papa1951deda ®

Gender: Male

Longevity: 11 months

Posts: 384

Location: Казахстан

Post 15-Oct-2019 14:14

[Quote]

Условный мент Год выпуска: 2019
Жанр: Детектив, приключения
Выпущено: Россия, Триикс Медиа
Режиссер: Андрей Коршунов
В ролях: Денис Рожков, Анастасия Тюнина, Алексей Нилов, Егор Бакулин, Сергей Кошонин, Алексей Фокин, Кирилл Балобан, Ольга Богданова, Любовь Макеева, Александра Сыдорук, Сергей Фролов, Алексей Байдаков, Ольга Кирсанова-Миропольская, Евгений Карпов, Виталий Бисеров, Роман Притула, Олег Попов (II), Михаил Черняк, Евгений Антонов
О фильме: Одновременно в Петербург приезжают бывший опер Дмитрий Рыжов, отсидевший в колонии за превышение полномочий, и капитан полиции Арина Гордеева. Рыжов устраивается работать в Жилкомсервис, чтобы зарабатывать деньги, ездить на своей аварийной машине по родному району и больше не иметь ничего общего с полицией. Гордеева становится участковым этого же района. В нём всем заправляет бизнесмен Вениамин Воронов – он же Веня Ворон. Под его «покровительством» практически все злачные точки и многие предприятия, которые за долю немалую прикрывает местный участковый капитан Тельцов...
Качество: WEBRip 720p
Видео: MPEG-4 AVC, ~ 1616 Кбит/с, 1280х720, 25 кадр/с
Аудио: AC3, 2 ch, 192 Кбит/с
Продолжительность: 20 х ~ 00:39:46
Перевод: Не требуется [Русский]
Cубтитры: нет

Скриншоты


MediaInfo

General
Unique ID : 203794461664941910840285163545968149509 (0x995162B820E92A8191641E925E328405)
Complete name : D:\моё видио\Условный мент.2019 WEB-DL 720p. Files-x\01. Условный мент.2019 WEB-DL 720p. Files-x.mkv
Format : Matroska
Format version : Version 2
File size : 530 MiB
Duration : 40mn 9s
Overall bit rate : 1 844 Kbps
Encoded date : UTC 2019-10-15 10:14:39
Writing application : mkvmerge v7.8.0 ('River Man') 32bit built on Apr 3 2015 12:11:22
Writing library : libebml v1.3.1 + libmatroska v1.4.2
Video
ID : 1
Format : AVC
Format/Info : Advanced Video Codec
Format profile : Main@L3.1
Format settings, CABAC : Yes
Format settings, ReFrames : 3 frames
Codec ID : V_MPEG4/ISO/AVC
Duration : 40mn 9s
Bit rate : 1 616 Kbps
Width : 1 280 pixels
Height : 720 pixels
Display aspect ratio : 16:9
Frame rate mode : Constant
Frame rate : 25.000 fps
Color space : YUV
Chroma subsampling : 4:2:0
Bit depth : 8 bits
Scan type : Progressive
Bits/(Pixel*Frame) : 0.070
Stream size : 464 MiB (88%)
Default : Yes
Forced : No
Color primaries : BT.709
Transfer characteristics : BT.709
Matrix coefficients : BT.709
Audio
ID : 2
Format : AC-3
Format/Info : Audio Coding 3
Mode extension : CM (complete main)
Format settings, Endianness : Big
Codec ID : A_AC3
Duration : 40mn 9s
Bit rate mode : Constant
Bit rate : 192 Kbps
Channel(s) : 2 channels
Channel positions : Front: L R
Sampling rate : 44.1 KHz
Bit depth : 16 bits
Compression mode : Lossy
Stream size : 55.1 MiB (10%)
Default : Yes
Forced : No

Внимание! Раздача ведётся путём добавления новых серий

Раздача ведётся путём добавления новых серий, при каждом добавлении создаётся новый торрент. Чтобы начать докачку новой серии, пользователям необходимо сделать следующее:
- Остановить скачивание.
- Удалить старый торрент у себя из клиента (старые серии удалять не надо).
- Скачать новый торрент и запустить его у себя в клиенте вместо старого, при этом указать клиенту путь в старую папку куда и должно происходить скачивание новых серий.
Ваш клиент при этом должен произвести хеширование (проверку) старой папки (если не производит сам - помогите ему сделать это), и будет докачивать только те серии которых у вас ещё нет. Старые серии при этом не удаляются, а продолжают раздаваться!
Релиз от:


Last edited by papa1951deda on Yesterday 21:22; edited 10 times in total
[Profile] [PM]

papa1951deda ®

Gender: Male

Longevity: 11 months

Posts: 384

Location: Казахстан

Post 29-Oct-2019 22:10 (after 14 days)

[Quote]

Обновление
[Profile] [PM]
Display posts:    
Reply to topic

Current time is: 20-Nov 08:34

All times are UTC + 3



You cannot post new topics in this forum
You cannot reply to topics in this forum
You cannot edit your posts in this forum
You cannot delete your posts in this forum
You cannot vote in polls in this forum
You cannot attach files in this forum
You cannot download files in this forum