Гранд [1-21 серия из 21] (2018) WEBRip 1080p от Files-x

Reply to topic
 
Author Message

bond74 ®

Gender: Male

Longevity: 1 year

Posts: 697

Post 02-Dec-2018 15:23

[Quote]

Гранд Год выпуска: 2018
Жанр: Комедия
Выпущено: Россия, YBW Group­ по заказу телеканала Супер
Режиссер: Дмитрий Грибанов
В ролях: Александр Лыков, Мила Сивацкая, Константин Белошапка, Ольга Филимонова, Григорий Сиятвинда, Екатерина Вилкова, Елена Ксенофонтова, Милош Бикович, Сергей Лавыгин, Михаил Тарабукин, Ольга Кузьмина, Виктор Хориняк, Диана Пожарская
О фильме: Амбициозная и склонная к авантюрам студентка пятого курса Алтайского университета туризма и отдыха Ксения Завгородняя мечтает работать в гостиничном бизнесе и открыть собственный отель. Но навязчивое внимание ректора ставит под угрозу не только планы Ксюши, но и ее дальнейшее обучение в ВУЗе. Девушка находит смелый, но очень скандальный выход из ситуации, после которого ей приходится спасаться бегством из Барнаула. Ксюша отправляется в Москву в надежде устроиться портье в отель, где работает ее родственник.

Качество: WEBRip 1080p
Видео: MPEG-4 AVC, ~ 6300 Кбит/с, 1920x1080, 23.976 кадр/с
Аудио: AC3, 2 ch, 192 Кбит/с
Продолжительность: 21 х ~ 00:28:00
Перевод: Не требуется
Субтитры: нет

Скриншоты

MediaInfo

General
Unique ID : 175383861864594899337571091427669396136 (0x83F1B40081AF330586C016AAA9054AA8)
Complete name : H:\Гранд. (2018) WEB-DL 1080p. Files-x\01. Гранд.2018.WEB-DL 1080p. Files-x .mkv
Format : Matroska
File size : 1.31 GiB
Duration : 28mn 18s
Overall bit rate : 6 638 Kbps
Encoded date : UTC 2018-08-09 22:05:29
Writing application : mkvmerge v7.8.0 ('River Man') 32bit built on Apr 3 2015 12:11:22
Writing library : libebml v1.3.1 + libmatroska v1.4.2
Video
ID : 1
Format : AVC
Format/Info : Advanced Video Codec
Format profile : High@L4.0
Format settings, CABAC : Yes
Format settings, ReFrames : 4 frames
Codec ID : V_MPEG4/ISO/AVC
Duration : 28mn 18s
Bit rate : 6 314 Kbps
Width : 1 920 pixels
Height : 1 080 pixels
Display aspect ratio : 16:9
Frame rate mode : Variable
Frame rate : 23.976 fps
Color space : YUV
Chroma subsampling : 4:2:0
Bit depth : 8 bits
Scan type : Progressive
Bits/(Pixel*Frame) : 0.127
Stream size : 1.25 GiB (95%)
Audio
ID : 2
Format : AC-3
Format/Info : Audio Coding 3
Mode extension : CM (complete main)
Codec ID : A_AC3
Duration : 28mn 18s
Bit rate mode : Constant
Bit rate : 192 Kbps
Channel(s) : 2 channels
Channel positions : Front: L R
Sampling rate : 48.0 KHz
Bit depth : 16 bits
Compression mode : Lossy
Stream size : 38.9 MiB (3%)
Релиз от:
[Profile] [PM]
Display posts:    
Reply to topic

Current time is: 10-Dec 09:19

All times are UTC + 3



You cannot post new topics in this forum
You cannot reply to topics in this forum
You cannot edit your posts in this forum
You cannot delete your posts in this forum
You cannot vote in polls in this forum
You cannot attach files in this forum
You cannot download files in this forum