Любовь и Сакс (2017) SATRip от Files-x

Reply to topic
 
Author Message

Nicodem ®

Gender: Male

Longevity: 10 months 5 days

Posts: 224

Post 02-Dec-2018 16:12

[Quote]

Любовь и Сакс
Год выпуска: 2017
Жанр: Мелодрама
Выпущено: Россия, ДжемСтудия При Финансовой Поддержки Министерства Культуры Российской Федерации
Режиссер: Алла Сурикова
В ролях: Максим Аверин, Екатерина Климова, Александр Скляр, Сергей Газаров, Михаил Ефремов, Лариса Долина, Ольга Прокофьева, Ольга Кабо, Валерий Баринов, Даниил Белых, Андрей Носков, Женя Абдулова, Анна Ардова
О фильме: Сева и Люба - муж и жена. Он - джазовый музыкант, и он не приносит в дом ни копейки. Она арфистка в симфоническом оркестре, и она ведёт хозяйство и воспитывает их дочь. В какой-то момент они оказываются на грани развода, которого никто из них, на самом деле, не хочет.

Качество: SATRip
Видео: XviD, ~ 2063 Кбит/с, 720x400, 25 Кадр/с
Аудио: AC3, 2 ch, 192 Кбит/с
Продолжительность: 01:26:44
Перевод: Не требуется
Cубтитры: нет

Скриншоты






MediaInfo

General
Complete name : C:\Users\DOM\Desktop\ВИДЕО\Любовь и Сакс.(2017).SATRip.by.Nicodem.Files-x.avi
Format : AVI
Format/Info : Audio Video Interleave
File size : 1.37 GiB
Duration : 1h 26mn
Overall bit rate : 2 265 Kbps
Writing application : VirtualDubMod 1.5.10.3 | www.virtualdub-fr.org || (build 2550/release)
Writing library : VirtualDubMod build 2550/release
Video
ID : 0
Format : MPEG-4 Visual
Format profile : Advanced Simple@L5
Format settings, BVOP : 1
Format settings, QPel : No
Format settings, GMC : No warppoints
Format settings, Matrix : Custom
Codec ID : XVID
Codec ID/Hint : XviD
Duration : 1h 26mn
Bit rate : 2 063 Kbps
Width : 720 pixels
Height : 400 pixels
Display aspect ratio : 16:9
Frame rate : 25.000 fps
Color space : YUV
Chroma subsampling : 4:2:0
Bit depth : 8 bits
Scan type : Progressive
Compression mode : Lossy
Bits/(Pixel*Frame) : 0.287
Stream size : 1.25 GiB (91%)
Writing library : XviD 73
Audio
ID : 1
Format : AC-3
Format/Info : Audio Coding 3
Mode extension : CM (complete main)
Codec ID : 2000
Duration : 1h 26mn
Bit rate mode : Constant
Bit rate : 192 Kbps
Channel(s) : 2 channels
Channel positions : Front: L R
Sampling rate : 48.0 KHz
Bit depth : 16 bits
Compression mode : Lossy
Stream size : 119 MiB (8%)
Alignment : Split accross interleaves
Interleave, duration : 40 ms (1.00 video frame)
Interleave, preload duration : 500 ms
Релиз от:
[Profile] [PM]
Display posts:    
Reply to topic

Current time is: 23-Sep 04:35

All times are UTC + 3



You cannot post new topics in this forum
You cannot reply to topics in this forum
You cannot edit your posts in this forum
You cannot delete your posts in this forum
You cannot vote in polls in this forum
You cannot attach files in this forum
You cannot download files in this forum