Ленинград 46 [1-32 из 32 серии + послесловие] (2015) WEBRip-AVC

Reply to topic
 
Author Message

Серый1779 ®

Gender: Male

Longevity: 6 months 12 days

Posts: 439

Location: Украина

Post 02-Dec-2018 16:46

[Quote]

Ленинград 46
Год выпуска: 2015
Жанр: Детектив
Выпущено: Россия, Кинокомпания Триикс Медиа
Режиссер: Игорь Копылов
В ролях: Сергей Гармаш, Евгений Миллер, Анна Табанина, Алексей Горбунов, Александр Лыков, Андрей Мерзликин, Даниил Страхов, Дмитрий Ульянов, Елена Коренева, Александра Богданова (IV), Эдуард Флёров, Петр Зайченко, Роман Курцын, Кирилл Полухин, Евгений Леонов-Гладышев, Татьяна Ткач, Александр Аравушкин, Дмитрий Сутырин, Михаил Касапов, Дмитрий Паламарчук, Анатолий Горин, Владимир Богданов, Елизавета Кутузова, Владимир Матвеев, Андрей Шарков, Дмитрий Лебедев, Михаил Горский, Александр Петров (III), Игорь Павлов, Игорь Филиппов, Вячеслав Аркунов, Елена Карпова, Виктор Чупров, Ольга Павловец, Владислав Резник, Даниил Кокин, Евгения Любимова-Ананичева, Елизавета Нилова, Андрей Некрасов (III), Алёна Кучкова, Александр Иванов (V), Сергей Амосов, Михаил Елисеев, Яков Шамшин, Роман Агеев, Кирилл Ульянов, Андрей Астраханцев, Денис Зайцев, Ольга Гагарина, Геннадий Свирь, Евгений Бакалов, Николай Горшков, Дмитрий Мурашев, Александр Иванов (VIII), Марк Гаврилов, Сергей Сафронов, Георгий Поздняков, Юлия Нижельская, Михаил Хмуров
О фильме: История о мужестве, драма человеческих судеб, впервые открывающая многие страницы жизни послевоенного Ленинграда — суровой и подчас жестокой. Город, только что переживший блокаду и еще не оправившийся от голода, разрушений, смертей. Здесь милиция ведет свою неравную войну с преступностью, накрывшей Ленинград после войны…
После фронта, плена, штрафбата и госпиталя в Ленинград возвращается бывший преподаватель русского языка и литературы Игорь Данилов. В поезде он знакомится с командировочным Тарасовым. Случайно столкнув Данилова и Тарасова в вагоне поезда, жизнь будет сводить их не раз и не два…
Потеряв все – семью, работу, жилье — бывший преподаватель Данилов оказывается по другую сторону закона. Пытаясь добиться справедливости и отомстить тем, кто исковеркал его жизнь, он все больше погружается в криминальный мир послевоенного Ленинграда, постепенно превращаясь в одного из самых хитрых и опасных преступников.
Качество: WEBRip-AVC
Видео: MPEG-4 AVC, ~ 2000 Кбит/с, 1024x576, 25 кадр/с
Аудио: АС3, 2 ch, 192 Кбит/с
Продолжительность: 33 х 00:46:00
Перевод: Не требуется
Cубтитры: нет

Скриншоты


MediaInfo

Общее
Уникальный идентификатор : 36618152899330942305185432857767603105 (0x1B8C6653E624FEC59805CC0581D06BA1)
Полное имя : F:\Ленинград 46 2015 WEB-DLRip(AVC)\Серия 01.mkv
Формат : Matroska
Размер файла : 735 Мбайт
Продолжительность : 46 м.
Общий поток : 2197 Кбит/сек
Программа кодирования : Lavf53.31.100
Библиотека кодирования : Lavf53.31.100
Видео
Идентификатор : 1
Формат : AVC
Формат/Информация : Advanced Video Codec
Профиль формата : Main@L3.1
Параметр CABAC формата : Да
Параметр ReFrames формата : 2 кадра
Идентификатор кодека : V_MPEG4/ISO/AVC
Продолжительность : 46 м.
Вид битрейта : Постоянный
Битрейт : 2000 Кбит/сек
Ширина : 1024 пикс.
Высота : 576 пикс.
Соотношение сторон : 16:9
Частота кадров : 25,000 кадр/сек
Цветовое пространство : YUV
Подвыборка цветности : 4:2:0
Битовая глубина : 8 бит
Тип развёртки : Прогрессивная
Бит/(Пиксели*Кадры) : 0.136
Размер потока : 656 Мбайт (89%)
Язык : English
Аудио
Идентификатор : 2
Формат : AC-3
Формат/Информация : Audio Coding 3
Расширение режима : CM (complete main)
Идентификатор кодека : A_AC3
Продолжительность : 46 м.
Вид битрейта : Постоянный
Битрейт : 192 Кбит/сек
Каналы : 2 канала
Расположение каналов : Front: L R
Частота : 48,0 КГц
Битовая глубина : 16 бит
Метод сжатия : С потерями
Размер потока : 64,2 Мбайт (9%)
Язык : English
[Profile] [PM]
Display posts:    
Reply to topic

Current time is: 24-May 13:07

All times are UTC + 3



You cannot post new topics in this forum
You cannot reply to topics in this forum
You cannot edit your posts in this forum
You cannot delete your posts in this forum
You cannot vote in polls in this forum
You cannot attach files in this forum
You cannot download files in this forum