Любовь под микроскопом [1-4 серии из 4] (2018) WEB-DLRip от Files-x

Reply to topic
 
Author Message

Nicodem ®

Gender: Male

Longevity: 3 years 10 months

Posts: 1202

Post 02-Dec-2018 19:25

[Quote]

Любовь под микроскопом
Год выпуска: 2018
Жанр: Мелодрама
Выпущено: Россия, Украина, Кинокомпания "Star Media"
Режиссер: Олег Туранский
В ролях: Алина Сергеева, Вячеслав Довженко, Дмитрий Сова, Дарья Егоркина, Анатолий Ященко, Ксения Николаева
О фильме: Жизнь талантливого столичного хирурга складывается вполне успешно - отличные перспективы на работе плюс она ждет ребенка от любимого мужчины, за которого собирается замуж. Все рушится в один миг. Анна берется оперировать безнадежного пациента, пострадавшего в аварии, и молодой человек умирает прямо у нее под скальпелем. Но главная героиня еще не знает, что черная полоса в ее жизни только начинает набирать обороты...

Качество: WEB-DLRip
Видео: XviD, ~ 1840 Кбит/с, 720x400, 25 Кадр/с
Аудио: AC3, 2 ch, 192 Кбит/с
Продолжительность: 4 x ~ 00:47:20
Перевод: Не требуется
Cубтитры: нет

Скриншоты






MediaInfo

General
Complete name : C:\Users\DOM\Desktop\ВИДЕО\Любовь под микроскопом.(2018).WEB-DLRip.by.Nicodem.Files-x\01.Любовь под микроскопом.(2018).WEB-DLRip.by.Nicodem.Files-x.avi
Format : AVI
Format/Info : Audio Video Interleave
File size : 699 MiB
Duration : 47mn 52s
Overall bit rate : 2 042 Kbps
Writing application : VirtualDubMod 1.5.10.3 | www.virtualdub-fr.org || (build 2550/release)
Writing library : VirtualDubMod build 2550/release
Video
ID : 0
Format : MPEG-4 Visual
Format profile : Advanced Simple@L5
Format settings, BVOP : 1
Format settings, QPel : No
Format settings, GMC : No warppoints
Format settings, Matrix : Custom
Codec ID : XVID
Codec ID/Hint : XviD
Duration : 47mn 52s
Bit rate : 1 840 Kbps
Width : 720 pixels
Height : 400 pixels
Display aspect ratio : 16:9
Frame rate : 25.000 fps
Color space : YUV
Chroma subsampling : 4:2:0
Bit depth : 8 bits
Scan type : Progressive
Compression mode : Lossy
Bits/(Pixel*Frame) : 0.256
Stream size : 630 MiB (90%)
Writing library : XviD 73
Audio
ID : 1
Format : AC-3
Format/Info : Audio Coding 3
Mode extension : CM (complete main)
Codec ID : 2000
Duration : 47mn 52s
Bit rate mode : Constant
Bit rate : 192 Kbps
Channel(s) : 2 channels
Channel positions : Front: L R
Sampling rate : 48.0 KHz
Bit depth : 16 bits
Compression mode : Lossy
Stream size : 65.7 MiB (9%)
Alignment : Split accross interleaves
Interleave, duration : 40 ms (1.00 video frame)
Interleave, preload duration : 500 ms
Релиз от:

Release was prepared by RG Files-x

[Profile] [PM]
Display posts:    
Reply to topic

Current time is: 06-Oct 22:44

All times are UTC + 3



You cannot post new topics in this forum
You cannot reply to topics in this forum
You cannot edit your posts in this forum
You cannot delete your posts in this forum
You cannot vote in polls in this forum
You cannot attach files in this forum
You cannot download files in this forum