Полет бабочки [1-4 серия из 4] (2013) HDTVRip 720p от Files-x

Reply to topic
 
Author Message

Серый1779 ®

Gender: Male

Longevity: 11 months 10 days

Posts: 635

Location: Украина

Post 03-Dec-2018 00:23

[Quote]

Полет бабочки Год выпуска: 2013
Жанр: Мелодрама
Выпущено: Россия, Украина, Star Media
Режиссёр: Николай Михайлов
В ролях: Борис Хвошнянский, Елена Радевич, Павел Баршак, Виктория Малекторович, София Стеценко, Константин Чернокрылюк, Станислав Боклан, Александр Кобзарь.
О фильме: В старом элитном доме селится молодая эффектная женщина Светлана с 10-летней дочкой Галей. Выясняется, что она сбежала из Парижа от своего бывшего французского мужа, который собирается отнять у нее дочку. У одного из соседей, известного антиквара Андрея Ковалевского есть сын, ровесник Галочки. Дети очень быстро находят общий язык, что сближает и их мам — Светлану и Ирину Ковалевскую. Вскоре Андрей, желая помочь несчастной соседке, берет ее на работу в свой антикварный салон. Это даст Светлане аргументы для французского суда, чтобы оставить дочь при себе. Отношения Ковалевского и Светланы очень быстро переходят в романтическое русло, что сразу же понимает Ирина. Обычный любовный треугольник? Вовсе нет! Так как в историю вмешается международный аферист, сотрудники ФСБ, якобы утраченный шедевр Казимира Малевича и обостряющееся при перевозбуждении заболевание сына Ковалевского.
Качество: HDTVRip 720p
Видео: MPEG 4 AVC, ~ 2281 Кбит/с, 1280х720, 25 кадр/с
Аудио: AAC, 2 ch, 192 Кбит/с
Продолжительность: 4 x ~ 00:45:00
Перевод: Не требуется
Субтитры: Нет

Скриншоты


MediaInfo

Общее
Уникальный идентификатор : 244456576289514777673198639957751322217 (0xB7E89FC0F190C66482CFBFD8237B5669)
Полное имя : E:\Полет бабочки AVC\02 серия.mkv
Формат : Matroska
Версия формата : Version 2
Размер файла : 812 Мбайт
Продолжительность : 44 м.
Общий поток : 2523 Кбит/сек
Дата кодирования : UTC 2013-01-23 08:04:58
Программа кодирования : mkvmerge v4.9.1 ('Ich will') built on Sep 21 2011 17:48:11
Библиотека кодирования : libebml v1.2.1 + libmatroska v1.2.0
Видео
Идентификатор : 1
Формат : AVC
Формат/Информация : Advanced Video Codec
Профиль формата : High@L5.0
Параметр CABAC формата : Да
Параметр ReFrames формата : 12 кадров
Идентификатор кодека : V_MPEG4/ISO/AVC
Продолжительность : 44 м.
Битрейт : 2281 Кбит/сек
Ширина : 1280 пикселей
Высота : 720 пикселей
Соотношение сторон : 16:9
Режим частоты кадров : Постоянный
Частота кадров : 25,000 кадров/сек
Цветовое пространство : YUV
Субдискретизация насыщенности : 4:2:0
Битовая глубина : 8 бит
Тип развёртки : Прогрессивная
Бит/(Пиксели*Кадры) : 0.099
Размер потока : 734 Мбайт (90%)
Библиотека кодирования : x264 core 118 r2085 8a62835
Настройки программы : cabac=1 / ref=12 / deblock=1:-2:-2 / analyse=0x3:0x133 / me=umh / subme=9 / psy=1 / psy_rd=1.00:0.15 / mixed_ref=1 / me_range=32 / chroma_me=1 / trellis=2 / 8x8dct=1 / cqm=0 / deadzone=21,11 / fast_pskip=0 / chroma_qp_offset=-3 / threads=3 / sliced_threads=0 / nr=0 / decimate=1 / interlaced=0 / bluray_compat=0 / constrained_intra=0 / bframes=10 / b_pyramid=2 / b_adapt=2 / b_bias=0 / direct=1 / weightb=1 / open_gop=0 / weightp=2 / keyint=250 / keyint_min=25 / scenecut=40 / intra_refresh=0 / rc_lookahead=50 / rc=crf / mbtree=1 / crf=20.0 / qcomp=0.60 / qpmin=0 / qpmax=69 / qpstep=4 / ip_ratio=1.40 / aq=2:0.80
Default : Да
Forced : Нет
Основные цвета : BT.601 PAL
Характеристики трансфера : BT.470 System B, BT.470 System G
Коэффициенты матрицы : BT.601
Аудио
Идентификатор : 2
Формат : MPEG Audio
Версия формата : Version 1
Профиль формата : Layer 2
Идентификатор кодека : A_MPEG/L2
Идентификатор кодека/Подсказка : MP2
Продолжительность : 44 м.
Вид битрейта : Постоянный
Битрейт : 192 Кбит/сек
Каналы : 2 канала
Частота : 48,0 КГц
Метод сжатия : С потерями
Размер потока : 61,8 Мбайт (8%)
Default : Да
Forced : Нет

h264 log

x264 [info]: frame I:394 Avg QP:16.92 size: 94242
x264 [info]: frame P:15207 Avg QP:20.16 size: 28520
x264 [info]: frame B:51859 Avg QP:24.08 size: 6069
x264 [info]: consecutive B-frames: 1.4% 1.0% 5.5% 39.5% 24.0% 26.4% 1.6% 0.5% 0.0% 0.0% 0.0%
x264 [info]: mb I I16..4: 17.2% 66.1% 16.6%
x264 [info]: mb P I16..4: 2.5% 7.8% 1.1% P16..4: 55.9% 14.5% 4.7% 0.7% 0.2% skip:12.6%
x264 [info]: mb B I16..4: 0.1% 0.7% 0.1% B16..8: 33.6% 3.8% 1.0% direct: 3.3% skip:57.3% L0:40.6% L1:50.7% BI: 8.6%
x264 [info]: 8x8 transform intra:68.9% inter:65.4%
x264 [info]: coded y,uvDC,uvAC intra: 70.7% 63.8% 25.1% inter: 13.7% 12.9% 0.8%
x264 [info]: i16 v,h,dc,p: 32% 13% 6% 50%
x264 [info]: i8 v,h,dc,ddl,ddr,vr,hd,vl,hu: 13% 11% 4% 8% 13% 14% 13% 12% 12%
x264 [info]: i4 v,h,dc,ddl,ddr,vr,hd,vl,hu: 13% 11% 3% 8% 14% 14% 13% 11% 13%
x264 [info]: i8c dc,h,v,p: 38% 26% 22% 14%
x264 [info]: Weighted P-Frames: Y:0.7% UV:0.1%
x264 [info]: ref P L0: 45.3% 11.6% 20.2% 5.1% 4.9% 3.2% 3.2% 1.3% 1.4% 1.1% 1.2% 1.2% 0.1% 0.0%
x264 [info]: ref B L0: 87.5% 6.5% 2.3% 1.0% 0.7% 0.6% 0.5% 0.3% 0.3% 0.2% 0.1%
x264 [info]: ref B L1: 96.5% 3.5%
x264 [info]: kb/s:2328.96
x264 [total]: encoded 67460 frames, 2.35 fps, 2280.96 kb/s
Релиз от:
[Profile] [PM]
Display posts:    
Reply to topic

Current time is: 22-Oct 15:30

All times are UTC + 3



You cannot post new topics in this forum
You cannot reply to topics in this forum
You cannot edit your posts in this forum
You cannot delete your posts in this forum
You cannot vote in polls in this forum
You cannot attach files in this forum
You cannot download files in this forum