Рождественский принц: Королевская свадьба / A Christmas Prince: The Royal Wedding (2018) WEB-DL 1080p

Reply to topic
 
Author Message

Monk ®

Gender: Male

Longevity: 11 months 8 days

Posts: 9042

Location: Казань

Post 03-Dec-2018 07:18

[Quote]

Рождественский принц: Королевская свадьба / A Christmas Prince: The Royal Wedding Год выпуска: 2018
Жанр: Мелодрама, комедия
Выпущено: США, Motion Picture Corporation of America (MPCA)
Режиссер: Джон Шульц
В ролях: Роуз МакИвер, Бен Лэмб, Элис Крайдж, Тео Девани, Сара Дуглас, Том Найт, Билл Энжел, Ричард Эштон, Саймон Даттон, Дэвид Бротон Дейвис
О фильме: Через год после того, как Эмбер помогла Ричарду закрепить королевскую власть, эти двое настроены связать себя узами на Королевской рождественской свадьбе, но их планы ставятся под угрозу, когда Эмбер начинает сомневаться, сможет ли она быть королевой, а Ричард сталкивается с политическим кризисом, который угрожает запятнать не только праздники, но и будущее королевства.

Качество: WEB-DL 1080p
Видео: MPEG-4 AVC, 5360 Кбит/с, 1920x1080
Аудио: Русский, английский (E-AC3, 6 ch, 640 Кбит/с)
Продолжительность: 01:32:58
Перевод: Дублированный [Пифагор]
Субтитры: Русские, английские, испанские, французские, немецкие, португальские

Скриншоты



MediaInfo

Полное имя : D:\A.Christmas.Prince.The.Royal.Wedding.2018.1080p.WEB-DL.DUB.EniaHD.mkv
Формат : Matroska
Версия формата : Version 4
Размер файла : 4,30 Гбайт
Продолжительность : 1 ч. 32 м.
Режим общего битрейта : Переменный
Общий поток : 6616 Кбит/сек
Название фильма : Принц на Рождество. Королевская свадьба (2018)
Дата кодирования : UTC 2018-12-01 09:15:57
Программа кодирования : mkvmerge v28.2.0 ('The Awakening') 32-bit
Библиотека кодирования : libebml v1.3.6 + libmatroska v1.4.9
Обложка : Yes
Attachments : cover.jpg
Видео
Идентификатор : 1
Формат : AVC
Формат/Информация : Advanced Video Codec
Профиль формата : Main@L4
Настройки формата : CABAC / 3 Ref Frames
Параметр CABAC формата : Да
Параметр RefFrames формата : 3 кадра
Идентификатор кодека : V_MPEG4/ISO/AVC
Продолжительность : 1 ч. 32 м.
Вид битрейта : Переменный
Битрейт : 5360 Кбит/сек
Максимальный битрейт : 8040 Кбит/сек
Ширина : 1920 пикселей
Высота : 1080 пикселей
Соотношение сторон : 16:9
Режим частоты кадров : Постоянный
Частота кадров : 23,976 (24000/1001) кадра/сек
Цветовое пространство : YUV
Субдискретизация насыщенности : 4:2:0
Битовая глубина : 8 бит
Тип развёртки : Прогрессивная
Бит/(Пиксели*Кадры) : 0.108
Размер потока : 3,46 Гбайт (81%)
Заголовок : A.Christmas.Prince.The.Royal.Wedding.2018.1080p.WEB-DL.DUB.EniaHD
Библиотека кодирования : x264 core 148 r2715 7e75228
Настройки программы : cabac=1 / ref=3 / deblock=1:0:0 / analyse=0x1:0x111 / me=umh / subme=10 / psy=1 / psy_rd=1.00:0.00 / mixed_ref=1 / me_range=24 / chroma_me=1 / trellis=2 / 8x8dct=0 / cqm=0 / deadzone=21,11 / fast_pskip=1 / chroma_qp_offset=-2 / threads=6 / lookahead_threads=1 / sliced_threads=0 / nr=0 / decimate=1 / interlaced=0 / bluray_compat=0 / stitchable=1 / constrained_intra=0 / bframes=2 / b_pyramid=0 / b_adapt=2 / b_bias=0 / direct=3 / weightb=1 / open_gop=0 / weightp=2 / keyint=48 / keyint_min=25 / scenecut=0 / intra_refresh=0 / rc_lookahead=48 / rc=2pass / mbtree=1 / bitrate=5360 / ratetol=1.0 / qcomp=0.50 / qpmin=6 / qpmax=51 / qpstep=4 / cplxblur=20.0 / qblur=0.5 / vbv_maxrate=8040 / vbv_bufsize=10720 / nal_hrd=vbr / filler=0 / ip_ratio=1.40 / aq=1:1.00
Язык : English
Default : Да
Forced : Нет
Аудио #1
Идентификатор : 2
Формат : E-AC-3
Формат/Информация : Enhanced AC-3
Коммерческое название : Dolby Digital Plus
Идентификатор кодека : A_EAC3
Продолжительность : 1 ч. 32 м.
Вид битрейта : Постоянный
Битрейт : 640 Кбит/сек
Каналы : 6 каналов
Channel layout : L R C LFE Ls Rs
Частота : 48,0 КГц
Частота кадров : 31,250 кадров/сек (1536 SPF)
Метод сжатия : С потерями
Размер потока : 426 Мбайт (10%)
Заголовок : E-AC3 5.1 @ 640 kbps - DUB, Пифагор
Язык : Russian
ServiceKind/String : Complete Main
Default : Да
Forced : Нет
Аудио #2
Идентификатор : 3
Формат : E-AC-3
Формат/Информация : Enhanced AC-3
Коммерческое название : Dolby Digital Plus
Идентификатор кодека : A_EAC3
Продолжительность : 1 ч. 32 м.
Вид битрейта : Постоянный
Битрейт : 640 Кбит/сек
Каналы : 6 каналов
Channel layout : L R C LFE Ls Rs
Частота : 48,0 КГц
Частота кадров : 31,250 кадров/сек (1536 SPF)
Метод сжатия : С потерями
Размер потока : 426 Мбайт (10%)
Заголовок : E-AC3 5.1 @ 640 kbps - Original
Язык : English
ServiceKind/String : Complete Main
Default : Нет
Forced : Нет
Текст #1
Идентификатор : 4
Формат : UTF-8
Идентификатор кодека : S_TEXT/UTF8
Идентификатор кодека/Информация : UTF-8 Plain Text
Продолжительность : 1 ч. 17 м.
Битрейт : 1 бит/сек
ElementCount : 17
Размер потока : 761 байт (0%)
Заголовок : Forced
Язык : Russian
Default : Да
Forced : Да
Текст #2
Идентификатор : 5
Формат : UTF-8
Идентификатор кодека : S_TEXT/UTF8
Идентификатор кодека/Информация : UTF-8 Plain Text
Продолжительность : 1 ч. 32 м.
Битрейт : 126 бит/сек
ElementCount : 1549
Размер потока : 85,6 Кбайт (0%)
Заголовок : Full
Язык : Russian
Default : Нет
Forced : Нет
Текст #3
Идентификатор : 6
Формат : UTF-8
Идентификатор кодека : S_TEXT/UTF8
Идентификатор кодека/Информация : UTF-8 Plain Text
Продолжительность : 1 ч. 29 м.
Битрейт : 83 бит/сек
ElementCount : 1695
Размер потока : 54,2 Кбайт (0%)
Заголовок : Full SDH
Язык : English
Default : Нет
Forced : Нет
Текст #4
Идентификатор : 7
Формат : UTF-8
Идентификатор кодека : S_TEXT/UTF8
Идентификатор кодека/Информация : UTF-8 Plain Text
Продолжительность : 1 ч. 32 м.
Битрейт : 67 бит/сек
ElementCount : 1536
Размер потока : 45,3 Кбайт (0%)
Заголовок : Brazilian
Язык : Portuguese
Default : Нет
Forced : Нет
Текст #5
Идентификатор : 8
Формат : UTF-8
Идентификатор кодека : S_TEXT/UTF8
Идентификатор кодека/Информация : UTF-8 Plain Text
Продолжительность : 1 ч. 32 м.
Битрейт : 74 бит/сек
ElementCount : 1553
Размер потока : 50,1 Кбайт (0%)
Язык : Danish
Default : Нет
Forced : Нет
Текст #6
Идентификатор : 9
Формат : UTF-8
Идентификатор кодека : S_TEXT/UTF8
Идентификатор кодека/Информация : UTF-8 Plain Text
Продолжительность : 1 ч. 32 м.
Битрейт : 75 бит/сек
ElementCount : 1431
Размер потока : 50,7 Кбайт (0%)
Язык : Dutch
Default : Нет
Forced : Нет
Текст #7
Идентификатор : 10
Формат : UTF-8
Идентификатор кодека : S_TEXT/UTF8
Идентификатор кодека/Информация : UTF-8 Plain Text
Продолжительность : 1 ч. 32 м.
Битрейт : 73 бит/сек
ElementCount : 1600
Размер потока : 49,5 Кбайт (0%)
Заголовок : European
Язык : Spanish
Default : Нет
Forced : Нет
Текст #8
Идентификатор : 11
Формат : UTF-8
Идентификатор кодека : S_TEXT/UTF8
Идентификатор кодека/Информация : UTF-8 Plain Text
Продолжительность : 1 ч. 32 м.
Битрейт : 63 бит/сек
ElementCount : 1138
Размер потока : 43,0 Кбайт (0%)
Язык : Finnish
Default : Нет
Forced : Нет
Текст #9
Идентификатор : 12
Формат : UTF-8
Идентификатор кодека : S_TEXT/UTF8
Идентификатор кодека/Информация : UTF-8 Plain Text
Продолжительность : 1 ч. 32 м.
Битрейт : 77 бит/сек
ElementCount : 1543
Размер потока : 52,4 Кбайт (0%)
Язык : French
Default : Нет
Forced : Нет
Текст #10
Идентификатор : 13
Формат : UTF-8
Идентификатор кодека : S_TEXT/UTF8
Идентификатор кодека/Информация : UTF-8 Plain Text
Продолжительность : 1 ч. 32 м.
Битрейт : 69 бит/сек
ElementCount : 1438
Размер потока : 47,1 Кбайт (0%)
Язык : German
Default : Нет
Forced : Нет
Текст #11
Идентификатор : 14
Формат : UTF-8
Идентификатор кодека : S_TEXT/UTF8
Идентификатор кодека/Информация : UTF-8 Plain Text
Продолжительность : 1 ч. 32 м.
Битрейт : 123 бит/сек
ElementCount : 1554
Размер потока : 83,5 Кбайт (0%)
Язык : Greek
Default : Нет
Forced : Нет
Текст #12
Идентификатор : 15
Формат : UTF-8
Идентификатор кодека : S_TEXT/UTF8
Идентификатор кодека/Информация : UTF-8 Plain Text
Продолжительность : 1 ч. 32 м.
Битрейт : 64 бит/сек
ElementCount : 1430
Размер потока : 43,5 Кбайт (0%)
Язык : Indonesian
Default : Нет
Forced : Нет
Текст #13
Идентификатор : 16
Формат : UTF-8
Идентификатор кодека : S_TEXT/UTF8
Идентификатор кодека/Информация : UTF-8 Plain Text
Продолжительность : 1 ч. 32 м.
Битрейт : 72 бит/сек
ElementCount : 1491
Размер потока : 48,8 Кбайт (0%)
Язык : Italian
Default : Нет
Forced : Нет
Текст #14
Идентификатор : 17
Формат : UTF-8
Идентификатор кодека : S_TEXT/UTF8
Идентификатор кодека/Информация : UTF-8 Plain Text
Продолжительность : 1 ч. 32 м.
Битрейт : 59 бит/сек
ElementCount : 1536
Размер потока : 39,8 Кбайт (0%)
Язык : Norwegian Bokmal
Default : Нет
Forced : Нет
Текст #15
Идентификатор : 18
Формат : UTF-8
Идентификатор кодека : S_TEXT/UTF8
Идентификатор кодека/Информация : UTF-8 Plain Text
Продолжительность : 1 ч. 32 м.
Битрейт : 68 бит/сек
ElementCount : 1518
Размер потока : 46,2 Кбайт (0%)
Язык : Polish
Default : Нет
Forced : Нет
Текст #16
Идентификатор : 19
Формат : UTF-8
Идентификатор кодека : S_TEXT/UTF8
Идентификатор кодека/Информация : UTF-8 Plain Text
Продолжительность : 1 ч. 32 м.
Битрейт : 65 бит/сек
ElementCount : 1553
Размер потока : 44,5 Кбайт (0%)
Язык : Portuguese
Default : Нет
Forced : Нет
Текст #17
Идентификатор : 20
Формат : UTF-8
Идентификатор кодека : S_TEXT/UTF8
Идентификатор кодека/Информация : UTF-8 Plain Text
Продолжительность : 1 ч. 32 м.
Битрейт : 68 бит/сек
ElementCount : 1449
Размер потока : 46,1 Кбайт (0%)
Язык : Spanish
Default : Нет
Forced : Нет
Текст #18
Идентификатор : 21
Формат : UTF-8
Идентификатор кодека : S_TEXT/UTF8
Идентификатор кодека/Информация : UTF-8 Plain Text
Продолжительность : 1 ч. 32 м.
Битрейт : 68 бит/сек
ElementCount : 1495
Размер потока : 46,3 Кбайт (0%)
Язык : Swedish
Default : Нет
Forced : Нет
Текст #19
Идентификатор : 22
Формат : UTF-8
Идентификатор кодека : S_TEXT/UTF8
Идентификатор кодека/Информация : UTF-8 Plain Text
Продолжительность : 1 ч. 32 м.
Битрейт : 70 бит/сек
ElementCount : 1550
Размер потока : 47,8 Кбайт (0%)
Язык : Turkish
Default : Нет
Forced : Нет
[Profile] [PM]
Display posts:    
Reply to topic

Current time is: 22-Oct 15:30

All times are UTC + 3



You cannot post new topics in this forum
You cannot reply to topics in this forum
You cannot edit your posts in this forum
You cannot delete your posts in this forum
You cannot vote in polls in this forum
You cannot attach files in this forum
You cannot download files in this forum