Очень тёмные времена / Super Dark Times (2017) BDRip 1080p

Reply to topic
 
Author Message

Monk ®

Gender: Male

Longevity: 8 months 8 days

Posts: 7519

Location: Казань

Post 03-Dec-2018 07:46

[Quote]

Очень тёмные времена / Super Dark Times Год выпуска: 2017
Жанр: Триллер, драма
Выпущено: США, Higher Content, Lila 9th Productions, Neighborhood Watch
Режиссер: Кевин Филлипс
В ролях: Оуэн Кэмпбелл, Чарли Тахэн, Лиззи Каппуччино, Макс талисман, Сойер Барт, Эми Харгривз, Адеа Леннокс, Этан Ботвик, Филип Эшли, Джастин Роуз
О фильме: Всю свою жизнь подростки Зак и Джош были лучшими друзьями. Дружили бы и дальше, если бы не ужасное происшествие, которое они решили скрыть. Но подобные секреты ведут лишь к паранойе и ещё большему насилию.

Качество: BDRip 1080p
Видео: MPEG-4 AVC, 9124 Кбит/с, 1920x800, 23.976 кадр/с
Аудио: Русский, английский (AC3, 6 ch, 448 Кбит/с)
Продолжительность: 01:43:01
Перевод: Авторский [Дольский, Важенин (BadBajo)]
Субтитры: Русские, английские

Скриншоты



MediaInfo

General
Unique ID : 217317293308449213219570896451369897026 (0xA37DC9CB8301009C9AE1AFBA6A1B0C42)
Complete name : Super.Dark.Times.2017.BDRip.1080p.mkv
Format : Matroska
Format version : Version 4
File size : 7.52 GiB
Duration : 1 h 43 min
Overall bit rate : 10.4 Mb/s
Encoded date : UTC 2018-12-02 10:25:16
Writing application : mkvmerge v7.1.0 ('Good Love') 64bit built on Jul 27 2014 13:06:55
Writing library : libebml v1.3.0 + libmatroska v1.4.1
Video
ID : 1
Format : AVC
Format/Info : Advanced Video Codec
Format profile : High@L4.1
Format settings : CABAC / 5 Ref Frames
Format settings, CABAC : Yes
Format settings, ReFrames : 5 frames
Codec ID : V_MPEG4/ISO/AVC
Duration : 1 h 42 min
Bit rate : 9 124 kb/s
Width : 1 920 pixels
Height : 800 pixels
Display aspect ratio : 2.40:1
Frame rate mode : Constant
Frame rate : 23.976 (24000/1001) FPS
Color space : YUV
Chroma subsampling : 4:2:0
Bit depth : 8 bits
Scan type : Progressive
Bits/(Pixel*Frame) : 0.248
Stream size : 6.55 GiB (87%)
Writing library : x264 core 152 r2851 ba24899
Encoding settings : cabac=1 / ref=5 / deblock=1:-3:-3 / analyse=0x3:0x133 / me=umh / subme=9 / psy=1 / psy_rd=1.00:0.00 / mixed_ref=1 / me_range=16 / chroma_me=1 / trellis=2 / 8x8dct=1 / cqm=0 / deadzone=21,11 / fast_pskip=0 / chroma_qp_offset=-2 / threads=24 / lookahead_threads=2 / sliced_threads=0 / nr=0 / decimate=1 / interlaced=0 / bluray_compat=0 / constrained_intra=0 / bframes=3 / b_pyramid=2 / b_adapt=1 / b_bias=0 / direct=3 / weightb=1 / open_gop=0 / weightp=2 / keyint=240 / keyint_min=24 / scenecut=40 / intra_refresh=0 / rc_lookahead=50 / rc=2pass / mbtree=1 / bitrate=9124 / ratetol=1.0 / qcomp=0.60 / qpmin=0 / qpmax=69 / qpstep=4 / cplxblur=20.0 / qblur=0.5 / ip_ratio=1.40 / aq=1:1.00
Language : English
Default : Yes
Forced : No
Audio #1
ID : 2
Format : AC-3
Format/Info : Audio Coding 3
Commercial name : Dolby Digital
Codec ID : A_AC3
Duration : 1 h 42 min
Bit rate mode : Constant
Bit rate : 448 kb/s
Channel(s) : 6 channels
Channel layout : L R C LFE Ls Rs
Sampling rate : 48.0 kHz
Frame rate : 31.250 FPS (1536 SPF)
Bit depth : 16 bits
Compression mode : Lossy
Stream size : 330 MiB (4%)
Title : BadBajo (Андрей Важенин)
Language : Russian
Service kind : Complete Main
Default : Yes
Forced : No
Audio #2
ID : 3
Format : AC-3
Format/Info : Audio Coding 3
Commercial name : Dolby Digital
Codec ID : A_AC3
Duration : 1 h 42 min
Bit rate mode : Constant
Bit rate : 448 kb/s
Channel(s) : 6 channels
Channel layout : L R C LFE Ls Rs
Sampling rate : 48.0 kHz
Frame rate : 31.250 FPS (1536 SPF)
Bit depth : 16 bits
Compression mode : Lossy
Stream size : 330 MiB (4%)
Title : Андрей Дольский
Language : Russian
Service kind : Complete Main
Default : No
Forced : No
Audio #3
ID : 4
Format : AC-3
Format/Info : Audio Coding 3
Commercial name : Dolby Digital
Codec ID : A_AC3
Duration : 1 h 43 min
Bit rate mode : Constant
Bit rate : 448 kb/s
Channel(s) : 6 channels
Channel layout : L R C LFE Ls Rs
Sampling rate : 48.0 kHz
Frame rate : 31.250 FPS (1536 SPF)
Bit depth : 16 bits
Compression mode : Lossy
Stream size : 330 MiB (4%)
Language : English
Service kind : Complete Main
Default : No
Forced : No
Text #1
ID : 5
Format : UTF-8
Codec ID : S_TEXT/UTF8
Codec ID/Info : UTF-8 Plain Text
Duration : 1 h 36 min
Bit rate : 82 b/s
Count of elements : 1420
Stream size : 58.8 KiB (0%)
Language : Russian
Default : No
Forced : No
Text #2
ID : 6
Format : UTF-8
Codec ID : S_TEXT/UTF8
Codec ID/Info : UTF-8 Plain Text
Duration : 1 h 38 min
Bit rate : 53 b/s
Count of elements : 1464
Stream size : 39.0 KiB (0%)
Language : English
Default : No
Forced : No
Text #3
ID : 7
Format : UTF-8
Codec ID : S_TEXT/UTF8
Codec ID/Info : UTF-8 Plain Text
Duration : 1 h 40 min
Bit rate : 58 b/s
Count of elements : 1594
Stream size : 42.7 KiB (0%)
Title : SDH
Language : English
Default : No
Forced : No
Menu
00:00:00.000 : en:00:00:00.000
00:08:49.821 : en:00:08:49.821
00:16:51.594 : en:00:16:51.594
00:26:03.228 : en:00:26:03.228
00:34:35.156 : en:00:34:35.156
00:42:30.798 : en:00:42:30.798
00:50:39.328 : en:00:50:39.328
00:59:56.301 : en:00:59:56.301
01:08:11.129 : en:01:08:11.129
01:17:14.630 : en:01:17:14.630
01:24:54.673 : en:01:24:54.673
01:33:15.173 : en:01:33:15.173
[Profile] [PM]
Display posts:    
Reply to topic

Current time is: 22-Jul 22:36

All times are UTC + 3



You cannot post new topics in this forum
You cannot reply to topics in this forum
You cannot edit your posts in this forum
You cannot delete your posts in this forum
You cannot vote in polls in this forum
You cannot attach files in this forum
You cannot download files in this forum