Тумбад / Tumbbad (2018) WEB-DLRip AVC

Reply to topic
 
Author Message

Monk ®

Gender: Male

Longevity: 11 months

Posts: 9115

Location: Казань

Post 03-Dec-2018 08:16

[Quote]

Тумбад / Tumbbad Год выпуска: 2018
Жанр: Триллер, ужасы
Выпущено: Индия, Швеция, Colour Yellow Productions, Sohum Shah FIlms, Film i Vst
Режиссер: Рахи Анил Барве, Адеш Прасад
В ролях: Ронджини Чакраборти, Дипак Дамле, Анита Дате, Дхундирадж Прабхакар Джогалекар, Хэриш Ханна, Джоти Малше, Мохд Самад, Сохам Шах
О фильме: На заре веков Богиня-мать породила нескольких Богов, и самым любимым был её первенец — Хастад. Он решил, что всё золото мира должно принадлежать ему, за что был повержен другими Богами и почти уничтожен, но Богиня-мать спасла его и поместила в своё чрево. С тех пор люди забыли падшего Бога, не ставили ему алтари и не возносили молитвы. Индия, начало XX века. Неподалеку от замшелой деревушки Тумбад живет внебрачный сын местного лорда по имени Винаяк. В их доме спит проклятая прабабка-ведьма, которую мать Винаяка должна кормить, чтобы та не проснулась и не съела детей, также ходят слухи, что где-то в этой местности хранятся несметные богатства. После смерти лорда мать вместе с сыном уезжает в большой город, взяв с него клятву никогда не возвращаться в Тумбад. Через несколько лет уже взрослый Винаяк приезжает в родные края с твёрдой уверенностью, что сокровища спрятаны в заброшенном замке почившего лорда.

Качество: WEB-DLRip AVC
Видео: MPEG-4 AVC, 1823 Кбит/с, 1024х434
Аудио: Русский (AC3, 6 ch, 384 Кбит/с)
Продолжительность: 01:44:57
Перевод: Авторский [BadBajo]
Субтитры: Английские

Скриншоты



MediaInfo

Общее
Уникальный идентификатор : 182665934184975965483883378477372116224 (0x896C2DE31B73750AB79663AEEBC98D00)
Полное имя : F:\OlLanDGroup\Tumbbad.2018.WEB-DLRip(AVC).OlLanDGroup.mkv
Формат : Matroska
Версия формата : Version 4 / Version 2
Размер файла : 1,62 Гбайт
Продолжительность : 1 ч. 44 м.
Общий поток : 2208 Кбит/сек
Название фильма : Tumbbad (2018) #TorpedoUK#
Дата кодирования : UTC 2018-12-02 02:39:14
Программа кодирования : mkvmerge v25.0.0 ('Prog Noir') 64-bit
Библиотека кодирования : libebml v1.3.6 + libmatroska v1.4.9
Обложка : Yes
Attachments : cover.jpg
Видео
Идентификатор : 1
Формат : AVC
Формат/Информация : Advanced Video Codec
Профиль формата : High@L4.1
Параметр CABAC формата : Да
Параметр ReFrames формата : 10 кадров
Идентификатор кодека : V_MPEG4/ISO/AVC
Продолжительность : 1 ч. 44 м.
Битрейт : 1823 Кбит/сек
Ширина : 1024 пикселя
Высота : 434 пикселя
Соотношение сторон : 2,35:1
Режим частоты кадров : Постоянный
Частота кадров : 24,000 кадра/сек
Цветовое пространство : YUV
Субдискретизация насыщенности : 4:2:0
Битовая глубина : 8 бит
Тип развёртки : Прогрессивная
Бит/(Пиксели*Кадры) : 0.171
Размер потока : 1,34 Гбайт (83%)
Библиотека кодирования : x264 core 146 r2538 121396c
Настройки программы : cabac=1 / ref=10 / deblock=1:-2:-3 / analyse=0x3:0x113 / me=umh / subme=10 / psy=1 / psy_rd=0.95:0.07 / mixed_ref=1 / me_range=48 / chroma_me=1 / trellis=2 / 8x8dct=1 / cqm=0 / deadzone=21,11 / fast_pskip=1 / chroma_qp_offset=-3 / threads=6 / lookahead_threads=1 / sliced_threads=0 / nr=0 / decimate=1 / interlaced=0 / bluray_compat=0 / constrained_intra=0 / bframes=11 / b_pyramid=2 / b_adapt=2 / b_bias=0 / direct=3 / weightb=1 / open_gop=0 / weightp=2 / keyint=240 / keyint_min=24 / scenecut=40 / intra_refresh=0 / rc_lookahead=40 / rc=2pass / mbtree=0 / bitrate=1823 / ratetol=1.0 / qcomp=0.60 / qpmin=0 / qpmax=69 / qpstep=4 / cplxblur=20.0 / qblur=0.5 / vbv_maxrate=50000 / vbv_bufsize=62500 / nal_hrd=none / filler=0 / ip_ratio=1.40 / pb_ratio=1.30 / aq=1:1.00
Язык : English
Default : Да
Forced : Нет
Аудио
Идентификатор : 2
Формат : AC-3
Формат/Информация : Audio Coding 3
Расширение режима : CM (complete main)
Параметр Endianness формата : Big
Идентификатор кодека : A_AC3
Продолжительность : 1 ч. 44 м.
Вид битрейта : Постоянный
Битрейт : 384 Кбит/сек
Каналы : 6 каналов
Расположение каналов : Front: L C R, Side: L R, LFE
Частота : 48,0 КГц
Частота кадров : 31,250 кадров/сек (1536 spf)
Битовая глубина : 16 бит
Метод сжатия : С потерями
Размер потока : 288 Мбайт (17%)
Заголовок : VO [Bad_Bajo]
Язык : Russian
Default : Да
Forced : Нет
Текст
Идентификатор : 3
Формат : UTF-8
Идентификатор кодека : S_TEXT/UTF8
Идентификатор кодека/Информация : UTF-8 Plain Text
Продолжительность : 1 ч. 35 м.
Битрейт : 27 бит/сек
Count of elements : 711
Размер потока : 19,5 Кбайт (0%)
Язык : English
Default : Нет
Forced : Нет
[Profile] [PM]
Display posts:    
Reply to topic

Current time is: 13-Nov 03:51

All times are UTC + 3



You cannot post new topics in this forum
You cannot reply to topics in this forum
You cannot edit your posts in this forum
You cannot delete your posts in this forum
You cannot vote in polls in this forum
You cannot attach files in this forum
You cannot download files in this forum