Сегодня в романтическом кинотеатре / Konya romance gekijo de (Color Me True) (2018) BDRip 720p

Reply to topic
 
Author Message

Monk ®

Gender: Male

Longevity: 1 year

Posts: 9618

Location: Казань

Post 03-Dec-2018 08:21

[Quote]

Сегодня в романтическом кинотеатре / Konya romance gekijo de (Color Me True) Год выпуска: 2018
Жанр: Мелодрама, фэнтези
Выпущено: Япония, Filmmakers, Fuji Television Network Inc., Horipro Inc.
Режиссер: Хидэки Такэути
В ролях: Харука Аясе, Кэнтаро Сакагути, Акира Эмото, Цубаса Хонда, Анна Исибаси, Го Като, Кадзуки Китамура, Акиёси Накао, Токума Нисиока, Мицухиро Тада
О фильме: Пожилой мужчина по имени Кэндзи лежит в больнице и читает медсестре сценарий фильма, который начал писать ещё в молодости. Когда-то давно он работал помощником режиссера и любил захаживать в местный кинотеатр, где смотрел старые чёрно-белые фильмы. Увидев ленту под названием «Принцесса-пацанка и весёлые зверушки», парень безнадёжно влюбился в главную героиню, и с тех пор смотрел этот фильм постоянно. Но однажды происходит чудо — чёрно-белая принцесса сходит с экрана. Она нарекает Кэндзи своим слугой и приказывает показать ей цветной мир.
Качество: BDRip 720p
Видео: MPEG-4 AVC, 5500 Кбит/с, 1280x590
Аудио: Русский (АС3, 2 ch, 192 Кбит/с), японский (DTS, 6 ch, 1536 Кбит/с)
Продолжительность: 01:48:29
Перевод: Любительский двухголосый [RusFilm]
Субтитры: Русские, английские, японские

Скриншоты


MediaInfo

General
Unique ID : 209214813056738100421676766177470653421 (0x9D654EAD046FCB5392360BB4141723ED)
Complete name : Сегодня в романтическом кинотеатре.2018.DVO.720p.BluRay.x264-MTeam.mkv
Format : Matroska
Format version : Version 4
File size : 5.47 GiB
Duration : 1 h 48 min
Overall bit rate : 7 216 kb/s
Movie name : Tonight, at the Movies [2018] [720p] DVO, RUSSUB
Encoded date : UTC 2018-12-28 15:06:52
Writing application : mkvmerge v7.8.0 ('River Man') 32bit built on Mar 27 2015 16:18:02
Writing library : libebml v1.3.1 + libmatroska v1.4.2
Attachments : AdonisC-Bold.otf / AdverGothic.ttf / Agatha-Modern.ttf / candaraz.ttf / Exo2.0-Bold_1.otf / trebuc.ttf / trebucbd.ttf
DIRECTOR : Hideki Takeuchi
GENRE : Fantasy, Romance
IMDB : tt6908760
KEYWORDS : rutracker.org , RG Orient Extreme Films , profile.php?mode=viewprofile&u=22488948
Video
ID : 1
Format : AVC
Format/Info : Advanced Video Codec
Format profile : High@L4.1
Format settings : CABAC / 9 Ref Frames
Format settings, CABAC : Yes
Format settings, RefFrames : 9 frames
Codec ID : V_MPEG4/ISO/AVC
Duration : 1 h 48 min
Bit rate : 5 500 kb/s
Width : 1 280 pixels
Height : 690 pixels
Display aspect ratio : 1.85:1
Frame rate mode : Constant
Frame rate : 23.976 (24000/1001) FPS
Color space : YUV
Chroma subsampling : 4:2:0
Bit depth : 8 bits
Scan type : Progressive
Bits/(Pixel*Frame) : 0.260
Stream size : 4.07 GiB (74%)
Title : 720p @ yadong1985 @ MTeam
Writing library : x264 core 155 r2901 7d0ff22
Encoding settings : cabac=1 / ref=9 / deblock=1:-3:-3 / analyse=0x3:0x133 / me=umh / subme=10 / psy=1 / psy_rd=1.00:0.00 / mixed_ref=1 / me_range=32 / chroma_me=1 / trellis=2 / 8x8dct=1 / cqm=0 / deadzone=21,11 / fast_pskip=0 / chroma_qp_offset=-2 / threads=12 / lookahead_threads=1 / sliced_threads=0 / nr=0 / decimate=1 / interlaced=0 / bluray_compat=0 / constrained_intra=0 / bframes=6 / b_pyramid=2 / b_adapt=2 / b_bias=0 / direct=3 / weightb=1 / open_gop=0 / weightp=2 / keyint=230 / keyint_min=22 / scenecut=40 / intra_refresh=0 / rc_lookahead=60 / rc=2pass / mbtree=1 / bitrate=5500 / ratetol=1.0 / qcomp=0.60 / qpmin=0 / qpmax=69 / qpstep=4 / cplxblur=20.0 / qblur=0.5 / vbv_maxrate=50000 / vbv_bufsize=50000 / nal_hrd=none / filler=0 / ip_ratio=1.40 / aq=1:1.00
Language : Japanese
Default : Yes
Forced : No
Audio #1
ID : 2
Format : AC-3
Format/Info : Audio Coding 3
Commercial name : Dolby Digital
Codec ID : A_AC3
Duration : 1 h 48 min
Bit rate mode : Constant
Bit rate : 192 kb/s
Channel(s) : 2 channels
Channel layout : L R
Sampling rate : 48.0 kHz
Frame rate : 31.250 FPS (1536 SPF)
Bit depth : 16 bits
Compression mode : Lossy
Stream size : 149 MiB (3%)
Title : DVO [RusFilm]
Language : Russian
Service kind : Complete Main
Default : Yes
Forced : No
Audio #2
ID : 3
Format : DTS
Format/Info : Digital Theater Systems
Codec ID : A_DTS
Duration : 1 h 48 min
Bit rate mode : Constant
Bit rate : 1 509 kb/s
Channel(s) : 6 channels
Channel layout : C L R Ls Rs LFE
Sampling rate : 48.0 kHz
Frame rate : 93.750 FPS (512 SPF)
Bit depth : 24 bits
Compression mode : Lossy
Stream size : 1.14 GiB (21%)
Language : Japanese
Default : No
Forced : No
Text #1
ID : 4
Format : ASS
Codec ID : S_TEXT/ASS
Codec ID/Info : Advanced Sub Station Alpha
Compression mode : Lossless
Title : ФСГ 'АЛЬЯНС'
Language : Russian
Default : No
Forced : No
Text #2
ID : 5
Format : UTF-8
Codec ID : S_TEXT/UTF8
Codec ID/Info : UTF-8 Plain Text
Language : English
Default : No
Forced : No
Text #3
ID : 6
Format : PGS
Muxing mode : zlib
Codec ID : S_HDMV/PGS
Codec ID/Info : Picture based subtitle format used on BDs/HD-DVDs
Language : Japanese
Default : No
Forced : No
Menu
00:00:00.000 : en:00:00:00.000
00:05:46.763 : en:00:05:46.763
00:07:53.973 : en:00:07:53.973
00:12:36.798 : en:00:12:36.798
00:19:12.109 : en:00:19:12.109
00:25:16.140 : en:00:25:16.140
00:32:23.066 : en:00:32:23.066
00:34:24.312 : en:00:34:24.312
00:41:30.196 : en:00:41:30.196
00:51:34.675 : en:00:51:34.675
00:54:20.924 : en:00:54:20.924
01:01:38.445 : en:01:01:38.445
01:07:39.055 : en:01:07:39.055
01:12:46.821 : en:01:12:46.821
01:16:25.706 : en:01:16:25.706
01:26:45.033 : en:01:26:45.033
01:34:42.385 : en:01:34:42.385
01:40:53.881 : en:01:40:53.881
01:44:17.251 : en:01:44:17.251
[Profile] [PM]
Display posts:    
Reply to topic

Current time is: 10-Dec 09:17

All times are UTC + 3



You cannot post new topics in this forum
You cannot reply to topics in this forum
You cannot edit your posts in this forum
You cannot delete your posts in this forum
You cannot vote in polls in this forum
You cannot attach files in this forum
You cannot download files in this forum