Красота и смотрящий / Beauty & the Beholder (2018) WEBRip 1080p

Reply to topic
 
Author Message

Monk ®

Gender: Male

Longevity: 1 year

Posts: 9618

Location: Казань

Post 03-Dec-2018 08:31

[Quote]

Красота и смотрящий / Beauty & the Beholder Год выпуска: 2018
Жанр: Драма, мелодрама, комедия
Выпущено: США,Reel One Entertainment,Supremacy Films,Total Momentum
Режиссер: ЛаРон Остин
В ролях: Руан Мартинс, Луиза Торрес, Арабелла Руби, Кендес Мэбри, Грег Корбетт, Аманда Мартинс, Ади Бенсон, Туриллис Гриер, Лэйн Смит, Паула Зеберт
О фильме: Самовлюбленный пластический хирург, у которого свое мнение на счет того, какой должна быть идеальная женщина, встречает совершенно обычную девушку, которая ставит под сомнение его принципы, методы и смысл жизни.

Качество: WEBRip 1080p
Видео: MPEG-4 AVC, 4408 Кбит/с, 1920x816
Аудио: Русский (AC3, 2 ch, 384 Кбит/с), английский (AC3, 6 ch, 192 Кбит/с), английский (AC3, 2 ch, 224 Кбит/с)
Продолжительность: 01:34:46
Перевод: Любительский двухголосый [fennec studio]
Субтитры: Английские

Скриншоты


MediaInfo

Общее
Уникальный идентификатор : 181864612100519076963086909077632116128 (0x88D1D9A877F223A0BBAAA98247B0E5A0)
Полное имя : Q:TorFBeauty.and.the.Beholder.2018.1080p.WEBRip.AMZN.mkv
Формат : Matroska
Версия формата : Version 2
Размер файла : 3,52 Гбайт
Продолжительность : 1 ч. 34 м.
Общий поток : 5314 Кбит/сек
Название фильма : CMRG
Дата кодирования : UTC 2018-11-30 19:09:18
Программа кодирования : mkvmerge v5.4.0 ('Piper') built on Mar 10 2012 13:34:39
Библиотека кодирования : libebml v1.2.3 + libmatroska v1.3.0
DURATION : 01:34:11.876000000
NUMBER_OF_FRAMES : 1861
NUMBER_OF_BYTES : 59559
_STATISTICS_WRITING_APP : mkvmerge v11.0.0 ('Alive') 64bit
_STATISTICS_WRITING_DATE_UTC : 2018-11-02 07:45:07
_STATISTICS_TAGS : BPS DURATION NUMBER_OF_FRAMES NUMBER_OF_BYTES
Видео
Идентификатор : 1
Формат : AVC
Формат/Информация : Advanced Video Codec
Профиль формата : High@L4.0
Параметр CABAC формата : Да
Параметр ReFrames формата : 4 кадра
Идентификатор кодека : V_MPEG4/ISO/AVC
Продолжительность : 1 ч. 34 м.
Битрейт : 4408 Кбит/сек
Ширина : 1920 пикселей
Высота : 816 пикселей
Соотношение сторон : 2,35:1
Частота кадров : 23,976 кадра/сек
Цветовое пространство : YUV
Субдискретизация насыщенности : 4:2:0
Битовая глубина : 8 бит
Тип развёртки : Прогрессивная
Бит/(Пиксели*Кадры) : 0.117
Размер потока : 2,92 Гбайт (83%)
Язык : English
Default : Да
Forced : Нет
Основные цвета : BT.709-5, BT.1361, IEC 61966-2-4, SMPTE RP177
Характеристики трансфера : BT.709-5, BT.1361
Коэффициенты матрицы : BT.709-5, BT.1361, IEC 61966-2-4 709, SMPTE RP177
Аудио #1
Идентификатор : 2
Формат : AC-3
Формат/Информация : Audio Coding 3
Расширение режима : CM (complete main)
Идентификатор кодека : A_AC3
Продолжительность : 1 ч. 34 м.
Вид битрейта : Постоянный
Битрейт : 384 Кбит/сек
Каналы : 2 канала
Расположение каналов : Front: L R
Частота : 48,0 КГц
Битовая глубина : 16 бит
Метод сжатия : С потерями
Размер потока : 260 Мбайт (7%)
Заголовок : fennec studio
Язык : Russian
Default : Да
Forced : Нет
Аудио #2
Идентификатор : 3
Формат : AC-3
Формат/Информация : Audio Coding 3
Расширение режима : CM (complete main)
Идентификатор кодека : A_AC3
Продолжительность : 1 ч. 34 м.
Вид битрейта : Постоянный
Битрейт : 192 Кбит/сек
Каналы : 6 каналов
Расположение каналов : Front: L C R, Side: L R, LFE
Частота : 48,0 КГц
Битовая глубина : 16 бит
Метод сжатия : С потерями
Размер потока : 130 Мбайт (4%)
Язык : English
Default : Нет
Forced : Нет
Аудио #3
Идентификатор : 4
Формат : E-AC-3
Формат/Информация : Audio Coding 3
Идентификатор кодека : A_EAC3
Продолжительность : 1 ч. 34 м.
Вид битрейта : Постоянный
Битрейт : 224 Кбит/сек
Каналы : 2 канала
Расположение каналов : Front: L R
Частота : 48,0 КГц
Метод сжатия : С потерями
Размер потока : 152 Мбайт (4%)
Заголовок : English
Язык : English
Default : Нет
Forced : Нет
Текст
Идентификатор : 5
Формат : UTF-8
Идентификатор кодека : S_TEXT/UTF8
Идентификатор кодека/Информация : UTF-8 Plain Text
Заголовок : English [SDH]
Язык : English
Default : Нет
Forced : Нет
[Profile] [PM]
Display posts:    
Reply to topic

Current time is: 10-Dec 09:17

All times are UTC + 3



You cannot post new topics in this forum
You cannot reply to topics in this forum
You cannot edit your posts in this forum
You cannot delete your posts in this forum
You cannot vote in polls in this forum
You cannot attach files in this forum
You cannot download files in this forum