Знахарь [1-16 серии из 16] (2018) HDTVRip от Generalfilm | КПК

Reply to topic
 
Author Message

mjjhec ®

Gender: Male

Longevity: 1 year

Posts: 374

Location: СССР

Post 08-Nov-2019 15:43

[Quote]

Знахарь Год выпуска: 2018
Жанр: Драма, мелодрама
Выпущено: Россия, Про-синема Фильм продакшн
Режиссер: Ярослав Мочалов
В ролях: Даниил Страхов, Екатерина Кузнецова (II), Николай Иванов (II), Владимир Матвеев, Сергей Колос, Павел Чинарёв, Светлана Смирнова-Марцинкевич, Андрей Ташков, Юрий Ицков, Валерий Гришко, Леонид Громов, Юлия Марченко, Алла Еминцева, Хельга Филиппова, Александра Мареева, Анна Дулова, Максим Ханжов, Артём Карасев, Александр Кононец, Мария Жиганова, Екатерина Суворова.
О фильме: Молодой и талантливый нейрохирург Павел Андреев возвращается в Петербург после учебы за границей и устраивается работать в отделение больницы, начальник которого — его бывший учитель. Не все в больнице рады внезапному появлению Павла — его главным конкурентом становится бывший однокурсник Сергей Стрельников. Вне работы жизнь главного героя также непростая: его начальник Николай Семенов просит его провести сложную операцию и удалить запущенную опухоль, а параллельно у молодого врача начинается роман с дочерью Семенова. Всю жизнь Андреева переворачивает несчастный случай, в результате которого он теряет память, но не способность помогать людям.
Качество: HDTVRip | КПК
Видео: Н.264, 640x360 (16:9), 25 fps, 400 Kbps
Аудио: AAC LC, 48 KHz, 2 ch, 128 Kbps
Продолжительность: 16 х ~00:50:00
Перевод / Озвучка: Не требуется

Скриншоты

MediaInfo

General
Complete name : F:\Rip\Znahar.by.mjjhec\03.Znahar.HDTVRip.mp4
Format : MPEG-4
Format profile : Base Media
Codec ID : isom (isom/avc1/iso6)
File size : 189 MiB
Duration : 49 min 36 s
Overall bit rate mode : Variable
Overall bit rate : 532 kb/s
Encoded date : UTC 2019-11-05 15:59:05
Tagged date : UTC 2019-11-05 15:59:05
Video
ID : 1
Format : AVC
Format/Info : Advanced Video Codec
Format profile : High@L4.1
Format settings : CABAC / 10 Ref Frames
Format settings, CABAC : Yes
Format settings, Reference : 10 frames
Codec ID : avc1
Codec ID/Info : Advanced Video Coding
Duration : 49 min 36 s
Bit rate : 400 kb/s
Maximum bit rate : 1 648 kb/s
Width : 640 pixels
Height : 360 pixels
Display aspect ratio : 16:9
Frame rate mode : Constant
Frame rate : 25.000 FPS
Color space : YUV
Chroma subsampling : 4:2:0
Bit depth : 8 bits
Scan type : Progressive
Bits/(Pixel*Frame) : 0.069
Stream size : 142 MiB (75%)
Title : 264@GPAC0.5.2-DEV-rev248-g39d5978-master
Writing library : x264 core 146 r2538 121396c
Encoding settings : cabac=1 / ref=10 / deblock=1:-3:-3 / analyse=0x3:0x133 / me=umh / subme=11 / psy=1 / psy_rd=1.00:1.00 / mixed_ref=1 / me_range=48 / chroma_me=1 / trellis=2 / 8x8dct=1 / cqm=0 / deadzone=21,11 / fast_pskip=1 / chroma_qp_offset=-4 / threads=6 / lookahead_threads=1 / sliced_threads=0 / nr=0 / decimate=0 / interlaced=0 / bluray_compat=0 / constrained_intra=0 / bframes=10 / b_pyramid=2 / b_adapt=2 / b_bias=0 / direct=3 / weightb=1 / open_gop=0 / weightp=2 / keyint=240 / keyint_min=24 / scenecut=40 / intra_refresh=0 / rc_lookahead=60 / rc=2pass / mbtree=0 / bitrate=400 / ratetol=1.0 / qcomp=0.60 / qpmin=0 / qpmax=69 / qpstep=4 / cplxblur=20.0 / qblur=0.5 / vbv_maxrate=14000 / vbv_bufsize=14000 / nal_hrd=none / filler=0 / ip_ratio=1.40 / pb_ratio=1.30 / aq=1:1.00
Encoded date : UTC 2019-11-05 15:59:05
Tagged date : UTC 2019-11-05 15:59:08
Codec configuration box : avcC
Audio
ID : 2
Format : AAC LC
Format/Info : Advanced Audio Codec Low Complexity
Codec ID : mp4a-40-2
Duration : 49 min 36 s
Bit rate mode : Variable
Bit rate : 128 kb/s
Maximum bit rate : 133 kb/s
Channel(s) : 2 channels
Channel layout : L R
Sampling rate : 48.0 kHz
Frame rate : 46.875 FPS (1024 SPF)
Compression mode : Lossy
Stream size : 45.4 MiB (24%)
Encoded date : UTC 2019-11-05 15:01:20
Tagged date : UTC 2019-11-05 15:59:08
Релиз от:
[Profile] [PM]
Display posts:    
Reply to topic

Current time is: 20-Nov 08:35

All times are UTC + 3



You cannot post new topics in this forum
You cannot reply to topics in this forum
You cannot edit your posts in this forum
You cannot delete your posts in this forum
You cannot vote in polls in this forum
You cannot attach files in this forum
You cannot download files in this forum