Хан Соло: Звёздные Войны. Истории / Solo: A Star Wars Story (2018) HDRip | Лицензия

Reply to topic
 
Author Message

Monk ®

Gender: Male

Longevity: 1 year

Posts: 9618

Location: Казань

Post 03-Dec-2018 08:53

[Quote]

Хан Соло: Звёздные Войны. Истории / Solo: A Star Wars Story Год выпуска: 2018
Жанр: Фантастика, фэнтези, боевик, приключения
Выпущено: США, Pantelion Films, 3Pas Studios, Metro-Goldwyn-Mayer (MGM)
Режиссер: Рон Ховард
В ролях: Олден Эйренрайк, Йонас Суотамо, Вуди Харрельсон, Эмилия Кларк, Дональд Гловер, Тэнди Ньютон, Фиби Уоллер-Бридж, Пол Беттани, Джон Фавро, Линда Хант
О фильме: Фильм расскажет о похождениях юного космического сорвиголовы Хана Соло и его верного напарника Чубакки и о том, как они стали самыми быстрыми пилотами и самыми хитрыми контрабандистами далёкой Галактики.

Качество: HDRip
Видео: MPEG-4 AVC, 2099 Кбит/с, 720x302
Аудио: Русcкий, английский (AC3, 6 ch, 448 Кбит/с)
Продолжительность: 02:14:46
Перевод: Дублированный [Лицензия]
Субтитры: Русские, английские
Локализованная версия

Скриншоты

MediaInfo

General
Unique ID : 204653315463469025257145469438697706444 (0x99F6CB7B168051B4849C485B214493CC)
Complete name : D:\Solo.A.Star.Wars.Story.2018.HDRip.AVC.ExKinoRay.mkv
Format : Matroska
Format version : Version 2
File size : 2.82 GiB
Duration : 2 h 14 min
Overall bit rate : 2 996 kb/s
Movie name : Solo A Star Wars Story 2018 from ExKinoRay
Encoded date : UTC 2018-09-16 13:34:31
Writing application : mkvmerge v5.6.0 ('Kenya Kane') built on May 27 2012 16:44:04
Writing library : libebml v1.2.3 + libmatroska v1.3.0
Video
ID : 1
Format : AVC
Format/Info : Advanced Video Codec
Format profile : High@L4.1
Format settings, CABAC : Yes
Format settings, ReFrames : 12 frames
Codec ID : V_MPEG4/ISO/AVC
Duration : 2 h 14 min
Bit rate : 2 099 kb/s
Width : 720 pixels
Height : 302 pixels
Display aspect ratio : 2.40:1
Frame rate mode : Constant
Frame rate : 23.976 (24000/1001) FPS
Original frame rate : 23.976 (23976/1000) FPS
Color space : YUV
Chroma subsampling : 4:2:0
Bit depth : 8 bits
Scan type : Progressive
Bits/(Pixel*Frame) : 0.403
Stream size : 1.92 GiB (68%)
Title : Enigma
Writing library : x264 core 152 r2851 ba24899
Encoding settings : cabac=1 / ref=12 / deblock=1:-2:-3 / analyse=0x3:0x113 / me=umh / subme=10 / psy=1 / psy_rd=1.00:0.05 / mixed_ref=1 / me_range=32 / chroma_me=1 / trellis=2 / 8x8dct=1 / cqm=0 / deadzone=21,11 / fast_pskip=0 / chroma_qp_offset=-3 / threads=9 / lookahead_threads=2 / sliced_threads=0 / nr=0 / decimate=0 / interlaced=0 / bluray_compat=0 / constrained_intra=0 / bframes=12 / b_pyramid=2 / b_adapt=2 / b_bias=0 / direct=3 / weightb=1 / open_gop=0 / weightp=2 / keyint=240 / keyint_min=23 / scenecut=40 / intra_refresh=0 / rc=2pass / mbtree=0 / bitrate=2099 / ratetol=1.0 / qcomp=0.60 / qpmin=0 / qpmax=51 / qpstep=4 / cplxblur=20.0 / qblur=0.5 / ip_ratio=1.40 / pb_ratio=1.30 / aq=3:0.80
Default : Yes
Forced : No
Color range : Limited
Color primaries : BT.709
Transfer characteristics : BT.709
Matrix coefficients : BT.709
Audio #1
ID : 2
Format : AC-3
Format/Info : Audio Coding 3
Mode extension : CM (complete main)
Format settings, Endianness : Big
Codec ID : A_AC3
Duration : 2 h 14 min
Bit rate mode : Constant
Bit rate : 448 kb/s
Channel(s) : 6 channels
Channel positions : Front: L C R, Side: L R, LFE
Sampling rate : 48.0 kHz
Frame rate : 31.250 FPS (1536 spf)
Compression mode : Lossy
Stream size : 432 MiB (15%)
Title : Dub (License)
Language : Russian
Default : Yes
Forced : No
Audio #2
ID : 3
Format : AC-3
Format/Info : Audio Coding 3
Mode extension : CM (complete main)
Format settings, Endianness : Big
Codec ID : A_AC3
Duration : 2 h 14 min
Bit rate mode : Constant
Bit rate : 448 kb/s
Channel(s) : 6 channels
Channel positions : Front: L C R, Side: L R, LFE
Sampling rate : 48.0 kHz
Frame rate : 31.250 FPS (1536 spf)
Compression mode : Lossy
Stream size : 432 MiB (15%)
Language : English
Default : No
Forced : No
Text #1
ID : 4
Format : UTF-8
Codec ID : S_TEXT/UTF8
Codec ID/Info : UTF-8 Plain Text
Title : Full
Language : Russian
Default : No
Forced : No
Text #2
ID : 5
Format : UTF-8
Codec ID : S_TEXT/UTF8
Codec ID/Info : UTF-8 Plain Text
Title : SDH
Language : Russian
Default : No
Forced : No
Text #3
ID : 6
Format : UTF-8
Codec ID : S_TEXT/UTF8
Codec ID/Info : UTF-8 Plain Text
Title : Full
Language : English
Default : No
Forced : No
Text #4
ID : 7
Format : UTF-8
Codec ID : S_TEXT/UTF8
Codec ID/Info : UTF-8 Plain Text
Title : SDH
Language : English
Default : No
Forced : No
Text #5
ID : 8
Format : UTF-8
Codec ID : S_TEXT/UTF8
Codec ID/Info : UTF-8 Plain Text
Title : Colored
Language : English
Default : No
Forced : No
Menu
00:00:00.000 : en:00:00:00.000
00:00:53.845 : en:00:00:53.845
00:02:10.213 : en:00:02:10.213
00:03:53.150 : en:00:03:53.150
00:06:00.485 : en:00:06:00.485
00:09:27.567 : en:00:09:27.567
00:13:16.045 : en:00:13:16.045
00:14:14.020 : en:00:14:14.020
00:16:12.263 : en:00:16:12.263
00:19:45.101 : en:00:19:45.101
00:22:43.821 : en:00:22:43.821
00:24:37.267 : en:00:24:37.267
00:27:00.035 : en:00:27:00.035
00:30:02.926 : en:00:30:02.926
00:32:54.681 : en:00:32:54.681
00:39:09.764 : en:00:39:09.764
00:41:59.225 : en:00:41:59.225
00:43:20.181 : en:00:43:20.181
00:44:32.128 : en:00:44:32.128
00:48:03.756 : en:00:48:03.756
00:51:58.324 : en:00:51:58.324
00:53:17.528 : en:00:53:17.528
00:57:23.523 : en:00:57:23.523
01:00:16.780 : en:01:00:16.780
01:02:40.882 : en:01:02:40.882
01:04:51.262 : en:01:04:51.262
01:05:29.509 : en:01:05:29.509
01:07:12.028 : en:01:07:12.028
01:08:05.915 : en:01:08:05.915
01:10:00.113 : en:01:10:00.113
01:12:44.193 : en:01:12:44.193
01:14:40.851 : en:01:14:40.851
01:18:30.873 : en:01:18:30.873
01:23:15.741 : en:01:23:15.741
01:26:32.646 : en:01:26:32.646
01:30:33.136 : en:01:30:33.136
01:35:19.672 : en:01:35:19.672
01:37:04.861 : en:01:37:04.861
01:38:52.802 : en:01:38:52.802
01:41:18.531 : en:01:41:18.531
01:43:02.676 : en:01:43:02.676
01:45:27.821 : en:01:45:27.821
01:46:32.177 : en:01:46:32.177
01:49:45.996 : en:01:49:45.996
01:53:33.890 : en:01:53:33.890
01:57:13.902 : en:01:57:13.902
01:58:55.128 : en:01:58:55.128
02:01:34.829 : en:02:01:34.829
02:03:20.893 : en:02:03:20.893
02:06:09.353 : en:02:06:09.353
[Profile] [PM]
Display posts:    
Reply to topic

Current time is: 10-Dec 09:18

All times are UTC + 3



You cannot post new topics in this forum
You cannot reply to topics in this forum
You cannot edit your posts in this forum
You cannot delete your posts in this forum
You cannot vote in polls in this forum
You cannot attach files in this forum
You cannot download files in this forum