Хан Соло: Звёздные Войны. Истории / Solo: A Star Wars Story (2018) BDRip AVC | Лицензия

Reply to topic
 
Author Message

Monk ®

Gender: Male

Longevity: 10 months 8 days

Posts: 8734

Location: Казань

Post 03-Dec-2018 08:55

[Quote]

Хан Соло: Звёздные Войны. Истории / Solo: A Star Wars Story Год выпуска: 2018
Жанр: Фантастика, фэнтези, боевик, приключения
Выпущено: США, Pantelion Films, 3Pas Studios, Metro-Goldwyn-Mayer (MGM)
Режиссер: Рон Ховард
В ролях: Олден Эйренрайк, Йонас Суотамо, Вуди Харрельсон, Эмилия Кларк, Дональд Гловер, Тэнди Ньютон, Фиби Уоллер-Бридж, Пол Беттани, Джон Фавро, Линда Хант
О фильме: Фильм расскажет о похождениях юного космического сорвиголовы Хана Соло и его верного напарника Чубакки и о том, как они стали самыми быстрыми пилотами и самыми хитрыми контрабандистами далёкой Галактики.

Качество: BDRip AVC
Видео: MPEG-4 AVC, 1650 Кбит/с, 1024x428
Аудио: Русский, английский (AC3, 6 ch, 448 Кбит/с)
Продолжительность: 02:14:46
Перевод: Дублированный [Лицензия]
Субтитры: Русские, английские
Локализованная версия

Скриншоты


MediaInfo

General
Unique ID : 235853309813883352453084799658803702161 (0xB16FB1F7AA9B0B8CB66621A0CF05A991)
Complete name : D:\Solo.A.Star.Wars.Story.2018.Local.BDRip.AVC.ExKinoRay.mkv
Format : Matroska
Format version : Version 2
File size : 2.40 GiB
Duration : 2 h 14 min
Overall bit rate : 2 547 kb/s
Movie name : Solo A Star Wars Story 2018 from ExKinoRay
Encoded date : UTC 2018-09-17 09:16:33
Writing application : mkvmerge v5.6.0 ('Kenya Kane') built on May 27 2012 16:44:04
Writing library : libebml v1.2.3 + libmatroska v1.3.0
Video
ID : 1
Format : AVC
Format/Info : Advanced Video Codec
Format profile : High@L4.1
Format settings, CABAC : Yes
Format settings, ReFrames : 12 frames
Codec ID : V_MPEG4/ISO/AVC
Duration : 2 h 14 min
Bit rate : 1 650 kb/s
Width : 1 024 pixels
Height : 428 pixels
Display aspect ratio : 2.40:1
Frame rate mode : Constant
Frame rate : 23.976 (24000/1001) FPS
Color space : YUV
Chroma subsampling : 4:2:0
Bit depth : 8 bits
Scan type : Progressive
Bits/(Pixel*Frame) : 0.157
Stream size : 1.51 GiB (63%)
Title : Enigma
Writing library : x264 core 152 r2851 ba24899
Encoding settings : cabac=1 / ref=12 / deblock=1:-2:-3 / analyse=0x3:0x113 / me=umh / subme=10 / psy=1 / psy_rd=1.00:0.05 / mixed_ref=1 / me_range=32 / chroma_me=1 / trellis=2 / 8x8dct=1 / cqm=0 / deadzone=21,11 / fast_pskip=0 / chroma_qp_offset=-3 / threads=12 / lookahead_threads=3 / sliced_threads=0 / nr=0 / decimate=0 / interlaced=0 / bluray_compat=0 / constrained_intra=0 / bframes=12 / b_pyramid=2 / b_adapt=2 / b_bias=0 / direct=3 / weightb=1 / open_gop=0 / weightp=2 / keyint=240 / keyint_min=23 / scenecut=40 / intra_refresh=0 / rc=2pass / mbtree=0 / bitrate=1650 / ratetol=1.0 / qcomp=0.60 / qpmin=0 / qpmax=51 / qpstep=4 / cplxblur=20.0 / qblur=0.5 / ip_ratio=1.40 / pb_ratio=1.30 / aq=3:0.80
Language : English
Default : Yes
Forced : No
Color range : Limited
Color primaries : BT.709
Transfer characteristics : BT.709
Matrix coefficients : BT.709
Audio #1
ID : 2
Format : AC-3
Format/Info : Audio Coding 3
Mode extension : CM (complete main)
Format settings, Endianness : Big
Codec ID : A_AC3
Duration : 2 h 14 min
Bit rate mode : Constant
Bit rate : 448 kb/s
Channel(s) : 6 channels
Channel positions : Front: L C R, Side: L R, LFE
Sampling rate : 48.0 kHz
Frame rate : 31.250 FPS (1536 spf)
Compression mode : Lossy
Stream size : 432 MiB (18%)
Title : Dub (License)
Language : Russian
Default : Yes
Forced : No
Audio #2
ID : 3
Format : AC-3
Format/Info : Audio Coding 3
Mode extension : CM (complete main)
Format settings, Endianness : Big
Codec ID : A_AC3
Duration : 2 h 14 min
Bit rate mode : Constant
Bit rate : 448 kb/s
Channel(s) : 6 channels
Channel positions : Front: L C R, Side: L R, LFE
Sampling rate : 48.0 kHz
Frame rate : 31.250 FPS (1536 spf)
Compression mode : Lossy
Stream size : 432 MiB (18%)
Language : English
Default : No
Forced : No
Text #1
ID : 4
Format : UTF-8
Codec ID : S_TEXT/UTF8
Codec ID/Info : UTF-8 Plain Text
Title : Forced
Language : Russian
Default : Yes
Forced : No
Text #2
ID : 5
Format : UTF-8
Codec ID : S_TEXT/UTF8
Codec ID/Info : UTF-8 Plain Text
Title : Full
Language : Russian
Default : No
Forced : No
Text #3
ID : 6
Format : UTF-8
Codec ID : S_TEXT/UTF8
Codec ID/Info : UTF-8 Plain Text
Title : SDH
Language : Russian
Default : No
Forced : No
Text #4
ID : 7
Format : UTF-8
Codec ID : S_TEXT/UTF8
Codec ID/Info : UTF-8 Plain Text
Title : Full
Language : English
Default : No
Forced : No
Text #5
ID : 8
Format : UTF-8
Codec ID : S_TEXT/UTF8
Codec ID/Info : UTF-8 Plain Text
Title : SDH
Language : English
Default : No
Forced : No
Text #6
ID : 9
Format : UTF-8
Codec ID : S_TEXT/UTF8
Codec ID/Info : UTF-8 Plain Text
Title : Colored
Language : English
Default : No
Forced : No
Menu
00:00:00.000 : en:Chapter 01
00:00:53.845 : en:Chapter 02
00:02:10.213 : en:Chapter 03
00:03:53.149 : en:Chapter 04
00:06:00.485 : en:Chapter 05
00:09:27.566 : en:Chapter 06
00:13:16.045 : en:Chapter 07
00:14:14.019 : en:Chapter 08
00:16:12.262 : en:Chapter 09
00:19:45.100 : en:Chapter 10
00:22:43.820 : en:Chapter 11
00:24:37.267 : en:Chapter 12
00:27:00.035 : en:Chapter 13
00:30:02.926 : en:Chapter 14
00:32:54.681 : en:Chapter 15
00:39:09.764 : en:Chapter 16
00:41:59.225 : en:Chapter 17
00:43:20.180 : en:Chapter 18
00:44:32.127 : en:Chapter 19
00:48:03.755 : en:Chapter 20
00:51:58.323 : en:Chapter 21
00:53:17.527 : en:Chapter 22
00:57:23.523 : en:Chapter 23
01:00:16.779 : en:Chapter 24
01:02:40.882 : en:Chapter 25
01:04:51.262 : en:Chapter 26
01:05:29.508 : en:Chapter 27
01:07:12.027 : en:Chapter 28
01:08:05.915 : en:Chapter 29
01:10:00.112 : en:Chapter 30
01:12:44.193 : en:Chapter 31
01:14:40.851 : en:Chapter 32
01:18:30.872 : en:Chapter 33
01:23:15.740 : en:Chapter 34
01:26:32.645 : en:Chapter 35
01:30:33.136 : en:Chapter 36
01:35:19.672 : en:Chapter 37
01:37:04.860 : en:Chapter 38
01:38:52.801 : en:Chapter 39
01:41:18.530 : en:Chapter 40
01:43:02.676 : en:Chapter 41
01:45:27.821 : en:Chapter 42
01:46:32.177 : en:Chapter 43
01:49:45.996 : en:Chapter 44
01:53:33.890 : en:Chapter 45
01:57:13.901 : en:Chapter 46
01:58:55.127 : en:Chapter 47
02:01:34.829 : en:Chapter 48
02:03:20.893 : en:Chapter 49
02:06:09.353 : en:Chapter 50
02:14:46.453 : en:Chapter 51
[Profile] [PM]
Display posts:    
Reply to topic

Current time is: 23-Sep 04:29

All times are UTC + 3



You cannot post new topics in this forum
You cannot reply to topics in this forum
You cannot edit your posts in this forum
You cannot delete your posts in this forum
You cannot vote in polls in this forum
You cannot attach files in this forum
You cannot download files in this forum