Хан Соло: Звёздные Войны. Истории / Solo: A Star Wars Story (2018) BDRip 1080p | Лицензия

Reply to topic
 
Author Message

Monk ®

Gender: Male

Longevity: 1 year

Posts: 9618

Location: Казань

Post 03-Dec-2018 08:58

[Quote]

Хан Соло: Звёздные Войны. Истории / Solo: A Star Wars Story Год выпуска: 2018
Жанр: Фантастика, фэнтези, боевик, приключения
Выпущено: США, Pantelion Films, 3Pas Studios, Metro-Goldwyn-Mayer (MGM)
Режиссер: Рон Ховард
В ролях: Олден Эйренрайк, Йонас Суотамо, Вуди Харрельсон, Эмилия Кларк, Дональд Гловер, Тэнди Ньютон, Фиби Уоллер-Бридж, Пол Беттани, Джон Фавро, Линда Хант
О фильме: Фильм расскажет о похождениях юного космического сорвиголовы Хана Соло и его верного напарника Чубакки и о том, как они стали самыми быстрыми пилотами и самыми хитрыми контрабандистами далёкой Галактики.

Качество: BDRip 1080p
Видео: MPEG-4 AVC, 8833 Кбит/с, 1920x804
Аудио: Русский (AC3, 6 ch, 640 Кбит/с), английский (DTS, 6 ch, 1510 Кбит/c)
Продолжительность: 02:14:46
Перевод: Дублированный [Лицензия]
Субтитры: Русские, английские

Скриншоты



MediaInfo

General
Unique ID : 37306096673863878775780464863312937456 (0x1C10E4931419310995FBD77568ED01F0)
Complete name : D:\Solo.A.Star.Wars.Story.2018.bdriP.108Op.werecut.PROD.mkv
Format : Matroska
Format version : Version 4 / Version 2
File size : 10.3 GiB
Duration : 2 h 14 min
Overall bit rate : 11.0 Mb/s
Movie name : Solo A Star Wars Story 2018 OR werecut PROD.
Encoded date : UTC 2018-09-16 11:46:35
Writing application : mkvmerge v23.0.0 ('The Bride Said No') 64-bit
Writing library : libebml v1.3.6 + libmatroska v1.4.9
Video
ID : 1
Format : AVC
Format/Info : Advanced Video Codec
Format profile : High@L4.1
Format settings : CABAC / 5 Ref Frames
Format settings, CABAC : Yes
Format settings, ReFrames : 5 frames
Codec ID : V_MPEG4/ISO/AVC
Duration : 2 h 14 min
Bit rate : 8 833 kb/s
Width : 1 920 pixels
Height : 804 pixels
Display aspect ratio : 2.40:1
Frame rate mode : Constant
Frame rate : 23.976 (24000/1001) FPS
Color space : YUV
Chroma subsampling : 4:2:0
Bit depth : 8 bits
Scan type : Progressive
Bits/(Pixel*Frame) : 0.239
Stream size : 8.32 GiB (80%)
Title : Solo.A.Star.Wars.Story.2018.1080p.Blu-ray.DTS-HD.MA.7.1.x264-PbK
Writing library : x264 core 148 r2692+46 0f71ed5 7mod [8-bit@all X86_64]
Encoding settings : cabac=1 / ref=5 / deblock=1:-3:-3 / analyse=0x3:0x113 / me=umh / subme=11 / psy=1 / fade_compensate=0.00 / psy_rd=1.00:0.00 / mixed_ref=1 / me_range=48 / chroma_me=1 / trellis=2 / 8x8dct=1 / cqm=0 / deadzone=11,6 / fast_pskip=0 / chroma_qp_offset=-2 / threads=25 / lookahead_threads=4 / sliced_threads=0 / nr=0 / decimate=0 / interlaced=0 / bluray_compat=0 / constrained_intra=0 / fgo=0 / bframes=8 / b_pyramid=2 / b_adapt=2 / b_bias=0 / direct=3 / weightb=1 / open_gop=0 / weightp=2 / keyint=250 / keyint_min=23 / scenecut=40 / intra_refresh=0 / rc_lookahead=60 / rc=crf / mbtree=0 / crf=17.5000 / qcomp=0.60 / qpmin=0:0:0 / qpmax=32:32:32 / qpstep=4 / vbv_maxrate=40000 / vbv_bufsize=30000 / crf_max=0.0 / nal_hrd=none / filler=0 / ip_ratio=1.30 / pb_ratio=1.20 / aq=4:0.80 / aq-sensitivity=10.00 / aq-factor=1.00:1.00:1.00 / aq2=0 / aq3=0
Language : English
Default : Yes
Forced : No
Color range : Limited
Color primaries : BT.709
Transfer characteristics : BT.709
Matrix coefficients : BT.709
Audio #1
ID : 2
Format : AC-3
Format/Info : Audio Coding 3
Commercial name : Dolby Digital
Codec ID : A_AC3
Duration : 2 h 14 min
Bit rate mode : Constant
Bit rate : 640 kb/s
Channel(s) : 6 channels
Channel layout : L R C LFE Ls Rs
Sampling rate : 48.0 kHz
Frame rate : 31.250 FPS (1536 SPF)
Bit depth : 16 bits
Compression mode : Lossy
Stream size : 617 MiB (6%)
Language : Russian
Service kind : Complete Main
Default : Yes
Forced : Yes
Audio #2
ID : 3
Format : DTS
Format/Info : Digital Theater Systems
Codec ID : A_DTS
Duration : 2 h 14 min
Bit rate mode : Constant
Bit rate : 1 509 kb/s
Channel(s) : 6 channels
Channel layout : C L R Ls Rs LFE
Sampling rate : 48.0 kHz
Frame rate : 93.750 FPS (512 SPF)
Bit depth : 24 bits
Compression mode : Lossy
Stream size : 1.42 GiB (14%)
Language : English
Default : No
Forced : No
Text #1
ID : 4
Format : UTF-8
Codec ID : S_TEXT/UTF8
Codec ID/Info : UTF-8 Plain Text
Duration : 2 h 6 min
Bit rate : 83 b/s
Count of elements : 1829
Stream size : 77.5 KiB (0%)
Title : Full
Language : Russian
Default : No
Forced : No
Text #2
ID : 5
Format : UTF-8
Codec ID : S_TEXT/UTF8
Codec ID/Info : UTF-8 Plain Text
Duration : 1 h 20 min
Bit rate : 2 b/s
Count of elements : 28
Stream size : 1.24 KiB (0%)
Title : Forced
Language : Russian
Default : Yes
Forced : Yes
Text #3
ID : 6
Format : UTF-8
Codec ID : S_TEXT/UTF8
Codec ID/Info : UTF-8 Plain Text
Duration : 2 h 5 min
Bit rate : 56 b/s
Count of elements : 1958
Stream size : 51.9 KiB (0%)
Title : Full
Language : English
Default : No
Forced : No
Text #4
ID : 7
Format : UTF-8
Codec ID : S_TEXT/UTF8
Codec ID/Info : UTF-8 Plain Text
Duration : 2 h 5 min
Bit rate : 96 b/s
Count of elements : 2258
Stream size : 89.4 KiB (0%)
Title : SDH
Language : Russian
Default : No
Forced : No
Text #5
ID : 8
Format : UTF-8
Codec ID : S_TEXT/UTF8
Codec ID/Info : UTF-8 Plain Text
Duration : 2 h 5 min
Bit rate : 63 b/s
Count of elements : 2232
Stream size : 58.5 KiB (0%)
Title : SDH
Language : English
Default : No
Forced : No
Text #6
ID : 9
Format : UTF-8
Codec ID : S_TEXT/UTF8
Codec ID/Info : UTF-8 Plain Text
Duration : 2 h 5 min
Bit rate : 85 b/s
Count of elements : 2232
Stream size : 78.8 KiB (0%)
Title : SDH Colored
Language : English
Default : No
Forced : No
Menu
00:00:00.000 : en:00:00:00.000
00:00:53.845 : en:00:00:53.845
00:02:10.213 : en:00:02:10.213
00:03:53.150 : en:00:03:53.150
00:06:00.485 : en:00:06:00.485
00:09:27.567 : en:00:09:27.567
00:13:16.045 : en:00:13:16.045
00:14:14.020 : en:00:14:14.020
00:16:12.263 : en:00:16:12.263
00:19:45.101 : en:00:19:45.101
00:22:43.821 : en:00:22:43.821
00:24:37.267 : en:00:24:37.267
00:27:00.035 : en:00:27:00.035
00:30:02.926 : en:00:30:02.926
00:32:54.681 : en:00:32:54.681
00:39:09.764 : en:00:39:09.764
00:41:59.225 : en:00:41:59.225
00:43:20.181 : en:00:43:20.181
00:44:32.128 : en:00:44:32.128
00:48:03.756 : en:00:48:03.756
00:51:58.324 : en:00:51:58.324
00:53:17.528 : en:00:53:17.528
00:57:23.523 : en:00:57:23.523
01:00:16.780 : en:01:00:16.780
01:02:40.882 : en:01:02:40.882
01:04:51.262 : en:01:04:51.262
01:05:29.509 : en:01:05:29.509
01:07:12.028 : en:01:07:12.028
01:08:05.915 : en:01:08:05.915
01:10:00.113 : en:01:10:00.113
01:12:44.193 : en:01:12:44.193
01:14:40.851 : en:01:14:40.851
01:18:30.873 : en:01:18:30.873
01:23:15.741 : en:01:23:15.741
01:26:32.646 : en:01:26:32.646
01:30:33.136 : en:01:30:33.136
01:35:19.672 : en:01:35:19.672
01:37:04.861 : en:01:37:04.861
01:38:52.802 : en:01:38:52.802
01:41:18.531 : en:01:41:18.531
01:43:02.676 : en:01:43:02.676
01:45:27.821 : en:01:45:27.821
01:46:32.177 : en:01:46:32.177
01:49:45.996 : en:01:49:45.996
01:53:33.890 : en:01:53:33.890
01:57:13.902 : en:01:57:13.902
01:58:55.128 : en:01:58:55.128
02:01:34.829 : en:02:01:34.829
02:03:20.893 : en:02:03:20.893
02:06:09.353 : en:02:06:09.353
[Profile] [PM]
Display posts:    
Reply to topic

Current time is: 10-Dec 09:17

All times are UTC + 3



You cannot post new topics in this forum
You cannot reply to topics in this forum
You cannot edit your posts in this forum
You cannot delete your posts in this forum
You cannot vote in polls in this forum
You cannot attach files in this forum
You cannot download files in this forum