Тёмные отражения / The Darkest Minds (2018) BDRip 720p | Лицензия

Reply to topic
 
Author Message

Monk ®

Gender: Male

Longevity: 1 year

Posts: 9618

Location: Казань

Post 03-Dec-2018 09:10

[Quote]

Тёмные отражения / The Darkest Minds Год выпуска: 2018
Жанр: Фантастика, триллер
Выпущено: США, 21 Laps Entertainment
Режиссер: Дженнифер Ю
В ролях: Брэдли Уитфорд, Мэнди Мур, Амандла Стенберг, Гвендолин Кристи, Харрис Дикинсон, Марк О'Брайэн, Уоллес Лэнгэм, Патрик Гибсон, Уэйд Уильямс, Голден Брукс, Мия Чех, Скайлан Брукс
О фильме: После того, как неизвестная болезнь убивает 98% американских детей, 2% выживших, у которых обнаруживаются суперспособности, отправляют в специальные лагеря. 16-летняя девушка сбегает из такого лагеря и присоединяется к группе других подростков, которые скрываются от правительства.

Качество: BDRip 720p
Видео: MPEG-4 AVC, 4556 Кбит/с, 1280x536
Аудио: Русский (DTS, 6 ch, 768 Кбит/с), (AC3, 6 ch, 448 Кбит/с), украинский (AC3, 6 ch, 448 Кбит/с), английский (DTS, 6 ch, 1510 Кбит/с)
Продолжительность: 01:43:47
Перевод: Дублированный [Лицензия]
Субтитры: Русские, английские, украинские

Скриншоты



MediaInfo

General
Unique ID : 305801749057338859430501899651174070248 (0xE60F464945CCCFA374CDA5CD7BF777E8)
Complete name : D:\Video111\The.Darkest.Minds.2018.BDRip.720p.selezen.mkv
Format : Matroska
Format version : Version 4
File size : 5.61 GiB
Duration : 1 h 43 min
Overall bit rate : 7 733 kb/s
Movie name : The Darkest Minds 2018 from селезень
Encoded date : UTC 2018-11-30 17:04:09
Writing application : mkvmerge v28.2.0 ('The Awakening') 64-bit
Writing library : libebml v1.3.6 + libmatroska v1.4.9
Video
ID : 1
Format : AVC
Format/Info : Advanced Video Codec
Format profile : High@L4.1
Format settings : CABAC / 12 Ref Frames
Format settings, CABAC : Yes
Format settings, ReFrames : 12 frames
Codec ID : V_MPEG4/ISO/AVC
Duration : 1 h 43 min
Bit rate : 4 556 kb/s
Width : 1 280 pixels
Height : 536 pixels
Display aspect ratio : 2.40:1
Frame rate mode : Constant
Frame rate : 23.976 (24000/1001) FPS
Color space : YUV
Chroma subsampling : 4:2:0
Bit depth : 8 bits
Scan type : Progressive
Bits/(Pixel*Frame) : 0.277
Stream size : 3.30 GiB (59%)
Title : HDSky
Writing library : x264 core 148 r2705+45 bdacf7a 7mod [8-bit@all X86_64]
Encoding settings : cabac=1 / ref=12 / deblock=1:-3:-3 / analyse=0x3:0x113 / me=umh / subme=11 / psy=1 / fade_compensate=0.00 / psy_rd=1.00:0.05 / mixed_ref=1 / me_range=32 / chroma_me=1 / trellis=2 / 8x8dct=1 / cqm=0 / deadzone=21,11 / fast_pskip=0 / chroma_qp_offset=-2 / threads=20 / lookahead_threads=3 / sliced_threads=0 / nr=0 / decimate=1 / interlaced=0 / bluray_compat=0 / constrained_intra=0 / fgo=0 / bframes=8 / b_pyramid=2 / b_adapt=2 / b_bias=0 / direct=3 / weightb=1 / open_gop=0 / weightp=2 / keyint=250 / keyint_min=23 / scenecut=40 / intra_refresh=0 / rc=crf / mbtree=0 / crf=15.0000 / qcomp=0.60 / qpmin=0:0:0 / qpmax=69:69:69 / qpstep=4 / ip_ratio=1.40 / pb_ratio=1.30 / aq=4:0.90 / aq-sensitivity=10.00 / aq-factor=1.00:1.00:1.00 / aq2=0 / aq3=0
Language : English
Default : Yes
Forced : No
Audio #1
ID : 2
Format : DTS
Format/Info : Digital Theater Systems
Codec ID : A_DTS
Duration : 1 h 43 min
Bit rate mode : Constant
Bit rate : 768 kb/s
Channel(s) : 6 channels
Channel layout : C L R Ls Rs LFE
Sampling rate : 48.0 kHz
Frame rate : 93.750 FPS (512 SPF)
Bit depth : 24 bits
Compression mode : Lossy
Stream size : 570 MiB (10%)
Title : Dub [License]
Language : Russian
Default : Yes
Forced : Yes
Audio #2
ID : 3
Format : AC-3
Format/Info : Audio Coding 3
Commercial name : Dolby Digital
Codec ID : A_AC3
Duration : 1 h 43 min
Bit rate mode : Constant
Bit rate : 448 kb/s
Channel(s) : 6 channels
Channel layout : L R C LFE Ls Rs
Sampling rate : 48.0 kHz
Frame rate : 31.250 FPS (1536 SPF)
Bit depth : 16 bits
Compression mode : Lossy
Stream size : 333 MiB (6%)
Title : Dub [License]
Language : Russian
Service kind : Complete Main
Default : No
Forced : No
Audio #3
ID : 4
Format : AC-3
Format/Info : Audio Coding 3
Commercial name : Dolby Digital
Codec ID : A_AC3
Duration : 1 h 43 min
Bit rate mode : Constant
Bit rate : 448 kb/s
Channel(s) : 6 channels
Channel layout : L R C LFE Ls Rs
Sampling rate : 48.0 kHz
Frame rate : 31.250 FPS (1536 SPF)
Bit depth : 16 bits
Compression mode : Lossy
Stream size : 333 MiB (6%)
Title : Dub [License]
Language : Ukrainian
Service kind : Complete Main
Default : No
Forced : No
Audio #4
ID : 5
Format : DTS ES
Format/Info : Digital Theater Systems
Commercial name : DTS-ES Matrix
Codec ID : A_DTS
Duration : 1 h 43 min
Bit rate mode : Constant
Bit rate : 1 509 kb/s
Channel(s) : 6 channels
Channel(s)_Original : 7 channels
Channel layout : C L R Ls Rs Cb LFE
Sampling rate : 48.0 kHz
Frame rate : 93.750 FPS (512 SPF)
Bit depth : 24 bits
Compression mode : Lossy
Stream size : 1.09 GiB (20%)
Title : Original
Language : English
Default : No
Forced : No
Text #1
ID : 6
Format : UTF-8
Codec ID : S_TEXT/UTF8
Codec ID/Info : UTF-8 Plain Text
Duration : 1 h 40 min
Bit rate : 0 b/s
Count of elements : 14
Stream size : 512 Bytes (0%)
Title : Forced
Language : Russian
Default : Yes
Forced : Yes
Text #2
ID : 7
Format : UTF-8
Codec ID : S_TEXT/UTF8
Codec ID/Info : UTF-8 Plain Text
Duration : 1 h 42 min
Bit rate : 74 b/s
Count of elements : 1288
Stream size : 56.0 KiB (0%)
Title : Full
Language : Russian
Default : No
Forced : No
Text #3
ID : 8
Format : UTF-8
Codec ID : S_TEXT/UTF8
Codec ID/Info : UTF-8 Plain Text
Duration : 1 h 40 min
Bit rate : 0 b/s
Count of elements : 6
Stream size : 384 Bytes (0%)
Title : Forced
Language : Ukrainian
Default : No
Forced : No
Text #4
ID : 9
Format : UTF-8
Codec ID : S_TEXT/UTF8
Codec ID/Info : UTF-8 Plain Text
Duration : 1 h 42 min
Bit rate : 73 b/s
Count of elements : 1291
Stream size : 55.0 KiB (0%)
Title : Full
Language : Ukrainian
Default : No
Forced : No
Text #5
ID : 10
Format : UTF-8
Codec ID : S_TEXT/UTF8
Codec ID/Info : UTF-8 Plain Text
Duration : 1 h 42 min
Bit rate : 49 b/s
Count of elements : 1373
Stream size : 37.2 KiB (0%)
Title : Full
Language : English
Default : No
Forced : No
Text #6
ID : 11
Format : UTF-8
Codec ID : S_TEXT/UTF8
Codec ID/Info : UTF-8 Plain Text
Duration : 1 h 42 min
Bit rate : 55 b/s
Count of elements : 1527
Stream size : 41.7 KiB (0%)
Title : SDH
Language : English
Default : No
Forced : No
Menu
00:00:00.000 : en:00:00:00.000
00:03:53.358 : en:00:03:53.358
00:09:40.038 : en:00:09:40.038
00:14:33.748 : en:00:14:33.748
00:19:26.957 : en:00:19:26.957
00:23:35.539 : en:00:23:35.539
00:26:24.166 : en:00:26:24.166
00:30:50.932 : en:00:30:50.932
00:35:35.342 : en:00:35:35.342
00:41:21.562 : en:00:41:21.562
00:47:22.923 : en:00:47:22.923
00:51:48.314 : en:00:51:48.314
00:55:55.227 : en:00:55:55.227
00:59:32.819 : en:00:59:32.819
01:03:33.685 : en:01:03:33.685
01:08:40.616 : en:01:08:40.616
01:12:14.247 : en:01:12:14.247
01:14:11.447 : en:01:14:11.447
01:18:01.802 : en:01:18:01.802
01:20:54.516 : en:01:20:54.516
01:23:28.003 : en:01:23:28.003
01:26:56.878 : en:01:26:56.878
01:29:24.985 : en:01:29:24.985
01:37:59.957 : en:01:37:59.957
[Profile] [PM]
Display posts:    
Reply to topic

Current time is: 10-Dec 09:18

All times are UTC + 3



You cannot post new topics in this forum
You cannot reply to topics in this forum
You cannot edit your posts in this forum
You cannot delete your posts in this forum
You cannot vote in polls in this forum
You cannot attach files in this forum
You cannot download files in this forum