Светлана / Дочь Сталина [1-8 серия из 8] (2018) WEB-DLRip от Files-x

Reply to topic
 
Author Message

papa1951deda ®

Gender: Male

Longevity: 10 months 2 days

Posts: 295

Location: Казахстан

Post 03-Dec-2018 09:16

[Quote]

Светлана. Дочь Сталина Год выпуска: 2018
Жанр: Биография, драма
Выпущено: Россия, Russian World Studios, Птицафильм
Режиссер: Евгений Звездаков
В ролях: Виктория Романенко, Сергей Колтаков, Павел Трубинер, Сергей Колос, Олег Осипов (II), Роберт Студеновский, Борис Бедросов, Олег Фёдоров (III), Денис Синявский, Тарас Бибич, Самвел Мужикян, Елизавета Александрова, Елизавета Нилова, Кристина Кузьмина, Алёна Савастова, Сергей Лосев, Мурад Султаниязов, Виктор Мелихов, Александр Алексеев (IV), Семён Стругачёв, Даниил Кокин, Роман Жилкин, Наталья Нестерова
О фильме: Драма «кремлевской принцессы» Светланы Аллилуевой, дочери всесильного вождя всех народов. Она была лишена материнской любви и ласки, зато в избытке хлебнула отцовской строгости. Она трижды меняла имя и вероисповедание, четырежды была замужем, родила троих детей, которые отреклись от нее, дважды эмигрировала из СССР. Несколько раз уезжала и возвращалась в США. Жила в Грузии, в Швейцарии, в Англии, во Франции. Написала несколько книг. Но до конца жизни осталась для всех дочерью Сталина…
Качество: WEB-DLRip
Видео: XviD, ~ 1700 Кбит/с, 720x400
Аудио: AC3, 2 ch, 192 Кбит/с
Продолжительность: 8 х ~ 00:49:00
Перевод: Не требуется
Субтитры: Нет

Скриншоты

MediaInfo

General
Complete name : D:\моё видио\Svetlana. (2018)\Svetlana.e01.WEB-DLRip.Files-x.avi
Format : AVI
Format/Info : Audio Video Interleave
File size : 655 MiB
Duration : 48mn 7s
Overall bit rate : 1 903 Kbps
Writing application : VirtualDubMod 1.5.10.3 | www.virtualdub-fr.org || (build 2550/release)
Writing library : VirtualDubMod build 2550/release
Video
ID : 0
Format : MPEG-4 Visual
Format profile : Advanced Simple@L5
Format settings, BVOP : 1
Format settings, QPel : No
Format settings, GMC : No warppoints
Format settings, Matrix : Custom
Codec ID : XVID
Codec ID/Hint : XviD
Duration : 48mn 7s
Bit rate : 1 701 Kbps
Width : 720 pixels
Height : 400 pixels
Display aspect ratio : 16:9
Frame rate : 25.000 fps
Color space : YUV
Chroma subsampling : 4:2:0
Bit depth : 8 bits
Scan type : Progressive
Compression mode : Lossy
Bits/(Pixel*Frame) : 0.236
Stream size : 585 MiB (89%)
Writing library : XviD 73
Audio
ID : 1
Format : AC-3
Format/Info : Audio Coding 3
Mode extension : CM (complete main)
Format settings, Endianness : Big
Codec ID : 2000
Duration : 48mn 7s
Bit rate mode : Constant
Bit rate : 192 Kbps
Channel(s) : 2 channels
Channel positions : Front: L R
Sampling rate : 48.0 KHz
Bit depth : 16 bits
Compression mode : Lossy
Stream size : 66.1 MiB (10%)
Alignment : Split accross interleaves
Interleave, duration : 40 ms (1.00 video frame)
Interleave, preload duration : 500 ms
Релиз от:
[Profile] [PM]
Display posts:    
Reply to topic

Current time is: 23-Sep 04:30

All times are UTC + 3



You cannot post new topics in this forum
You cannot reply to topics in this forum
You cannot edit your posts in this forum
You cannot delete your posts in this forum
You cannot vote in polls in this forum
You cannot attach files in this forum
You cannot download files in this forum