Рисуя небо / Dibujando el Cielo (2018) HDTVRip 720p

Reply to topic
 
Author Message

Monk ®

Gender: Male

Longevity: 1 year

Posts: 9618

Location: Казань

Post 03-Dec-2018 09:24

[Quote]

Рисуя небо / Dibujando el Cielo Год выпуска: 2018
Жанр: Мелодрама, латиноамериканский
Выпущено: Мексика, Bazooka Films
Режиссер: Ана Лаура Кальдерон
В ролях: Майте Перрони Беорлеги, Иван Санчес, Кристиан Васкес, Клаудия Рамирес, Химена Ромо, Анна Лаевская
О фильме: София - эксперт по небесной механике. Она отслеживает маршруты, которые спутники рисуют в космосе. Однако она понятия не имеет, каков ее собственный путь на земле. Однажды сильный шторм разрушает ее надежды на завершение важной работы. Но, как известно, после дождя всегда приходит солнце. София знакомится с Раулем, красивым вулканологом. Эта неожиданная встреча научит ее читать знаки, которая показывает ей Вселенная и не сомневаться в себе.
Качество: HDTVRip 720p
Видео: MPEG-4 AVC, 1980 Кбит/с, 1280х720
Аудио: ААС, 2 ch, 192 Кбит/с
Продолжительность: 01:24:29
Перевод: Любительский одноголосый [Madlen Duval]

Скриншоты



MediaInfo

Общее
Полное имя : T:\Dibujando El Cielo (2018) _ Рисуя небо.mp4
Формат : MPEG-4
Профиль формата : Base Media
Идентификатор кодека : isom (isom/iso2/avc1/mp41)
Размер файла : 1,28 Гбайт
Продолжительность : 1 ч. 24 м.
Общий поток : 2166 Кбит/сек
Программа кодирования : Lavf57.83.100
Видео
Идентификатор : 1
Формат : AVC
Формат/Информация : Advanced Video Codec
Профиль формата : High@L3.1
Настройки формата : CABAC / 4 Ref Frames
Параметр CABAC формата : Да
Параметр RefFrames формата : 4 кадра
Идентификатор кодека : avc1
Идентификатор кодека/Информация : Advanced Video Coding
Продолжительность : 1 ч. 24 м.
Битрейт : 1980 Кбит/сек
Ширина : 1280 пикселей
Высота : 720 пикселей
Соотношение сторон : 16:9
Режим частоты кадров : Постоянный
Частота кадров : 25,000 кадров/сек
Цветовое пространство : YUV
Субдискретизация насыщенности : 4:2:0
Битовая глубина : 8 бит
Тип развёртки : Прогрессивная
Бит/(Пиксели*Кадры) : 0.086
Размер потока : 1,16 Гбайт (91%)
Библиотека кодирования : x264 core 148
Настройки программы : cabac=1 / ref=2 / deblock=1:0:0 / analyse=0x3:0x113 / me=hex / subme=6 / psy=1 / psy_rd=1.00:0.00 / mixed_ref=1 / me_range=16 / chroma_me=1 / trellis=1 / 8x8dct=1 / cqm=0 / deadzone=21,11 / fast_pskip=1 / chroma_qp_offset=-2 / threads=6 / lookahead_threads=1 / sliced_threads=0 / nr=0 / decimate=1 / interlaced=0 / bluray_compat=0 / constrained_intra=0 / bframes=3 / b_pyramid=2 / b_adapt=1 / b_bias=0 / direct=1 / weightb=1 / open_gop=0 / weightp=1 / keyint=250 / keyint_min=25 / scenecut=40 / intra_refresh=0 / rc_lookahead=30 / rc=cbr / mbtree=1 / bitrate=1980 / ratetol=1.0 / qcomp=0.60 / qpmin=0 / qpmax=69 / qpstep=4 / vbv_maxrate=1980 / vbv_bufsize=3960 / nal_hrd=none / filler=0 / ip_ratio=1.40 / aq=1:1.00
Аудио
Идентификатор : 2
Формат : AAC
Формат/Информация : Advanced Audio Codec
Профиль формата : LC
Идентификатор кодека : mp4a-40-2
Продолжительность : 1 ч. 24 м.
Duration_LastFrame : -5 мс.
Вид битрейта : Постоянный
Битрейт : 192 Кбит/сек
Каналы : 2 канала
Расположение каналов : Front: L R
Частота : 44,1 КГц
Частота кадров : 43,066 кадра/сек (1024 SPF)
Метод сжатия : С потерями
Размер потока : 116 Мбайт (9%)
Default : Да
AlternateGroup/String : 1
[Profile] [PM]
Display posts:    
Reply to topic

Current time is: 10-Dec 09:16

All times are UTC + 3



You cannot post new topics in this forum
You cannot reply to topics in this forum
You cannot edit your posts in this forum
You cannot delete your posts in this forum
You cannot vote in polls in this forum
You cannot attach files in this forum
You cannot download files in this forum