Ограбление века (Ограбление в Хаттон Гарден) / The Hatton Garden Job (2017) BDRip 1080p | iTunes

Ответить на тему
 
Автор Сообщение

Monk ®

Пол: Мужской

Стаж: 3 месяца 1 день

Сообщений: 3233

Откуда: Казань

Создавать темы 19-Ноя-2018 09:29

[Цитировать]

Ограбление века (Ограбление в Хаттон Гарден) / The Hatton Garden Job Год выпуска: 2017
Жанр: Боевик, триллер, криминал
Выпущено: Великобритания, Fiction Films
Режиссер: Ронни Томпсон
В ролях: Мэттью Гуд, Джоэли Ричардсон, Стивен Мойер, Клайв Расселл, Уоррен Браун, Дэвид Колдер, Ларри Ламб, Фил Дэниелс, Джек Дулан, Джон Элфорд
О фильме: Реальная история о самом масштабном ограблении в Великобритании. Налётчикам удалось вынести из надёжно защищённого банковского хранилища наличные и ценности на сумму в 200 миллионов фунтов. Воспользовавшись своим богатым жизненным опытом, преступники придумали отличный план, в котором рассчитали каждый шаг буквально по минутам. Это дерзкое ограбление наделало много шуму и сделало всех его участников «знаменитостями».

Качество: BDRip 1080p
Видео: MPEG-4 AVC, 12.1 Мбит/с, 1920x1036
Аудио: Русский (AC3, 6 ch, 384 Кбит/с), английский (DTS, 6 ch, 1510 Кбит/с)
Продолжительность: 01:32:43
Перевод: Дублированный [iTunes]
Субтитры: Английские

Скриншоты



MediaInfo

General
Unique ID : 162079767140173531282096589264696383198 (0x79EF6D7D2FF4D4021ED509B0426016DE)
Complete name : D:\Video111\The.Hatton.Garden.Job.2017.BDRip.1080p.selezen.mkv
Format : Matroska
Format version : Version 4
File size : 9.08 GiB
Duration : 1 h 32 min
Overall bit rate : 14.0 Mb/s
Movie name : The Hatton Garden Job 2017 from селезень
Encoded date : UTC 2018-11-13 20:26:43
Writing application : mkvmerge v28.2.0 ('The Awakening') 64-bit
Writing library : libebml v1.3.6 + libmatroska v1.4.9
Video
ID : 1
Format : AVC
Format/Info : Advanced Video Codec
Format profile : High@L4.1
Format settings : CABAC / 4 Ref Frames
Format settings, CABAC : Yes
Format settings, ReFrames : 4 frames
Codec ID : V_MPEG4/ISO/AVC
Duration : 1 h 32 min
Bit rate : 12.1 Mb/s
Width : 1 920 pixels
Height : 1 036 pixels
Display aspect ratio : 1.85:1
Frame rate mode : Constant
Frame rate : 23.976 (24000/1001) FPS
Color space : YUV
Chroma subsampling : 4:2:0
Bit depth : 8 bits
Scan type : Progressive
Bits/(Pixel*Frame) : 0.254
Stream size : 7.85 GiB (86%)
Writing library : x264 core 152 r2851+45 9658d1a 7mod [8-bit@all X86_64]
Encoding settings : cabac=1 / ref=4 / deblock=1:-3:-3 / analyse=0x3:0x113 / me=umh / subme=11 / psy=1 / fade_compensate=0.00 / psy_rd=1.00:0.05 / mixed_ref=1 / me_range=32 / chroma_me=1 / trellis=2 / 8x8dct=1 / cqm=0 / deadzone=21,11 / fast_pskip=0 / chroma_qp_offset=-2 / threads=64 / lookahead_threads=8 / sliced_threads=0 / nr=0 / decimate=1 / interlaced=0 / bluray_compat=0 / constrained_intra=0 / fgo=0 / bframes=8 / b_pyramid=2 / b_adapt=2 / b_bias=0 / direct=3 / weightb=1 / open_gop=0 / weightp=2 / keyint=250 / keyint_min=23 / scenecut=40 / intra_refresh=0 / rc_lookahead=40 / rc=crf / mbtree=0 / crf=18.5000 / qcomp=0.60 / qpmin=0:0:0 / qpmax=69:69:69 / qpstep=4 / vbv_maxrate=50000 / vbv_bufsize=40000 / crf_max=0.0 / nal_hrd=none / filler=0 / ip_ratio=1.40 / pb_ratio=1.30 / aq=4:0.90 / aq-sensitivity=10.00 / aq-factor=1.00:1.00:1.00 / aq2=0 / aq3=0
Language : English
Default : Yes
Forced : No
Audio #1
ID : 2
Format : AC-3
Format/Info : Audio Coding 3
Commercial name : Dolby Digital
Codec ID : A_AC3
Duration : 1 h 32 min
Bit rate mode : Constant
Bit rate : 384 kb/s
Channel(s) : 6 channels
Channel layout : L R C LFE Ls Rs
Sampling rate : 48.0 kHz
Frame rate : 31.250 FPS (1536 SPF)
Bit depth : 16 bits
Compression mode : Lossy
Stream size : 255 MiB (3%)
Title : iTunes
Language : Russian
Service kind : Complete Main
Default : Yes
Forced : Yes
Audio #2
ID : 3
Format : DTS
Format/Info : Digital Theater Systems
Codec ID : A_DTS
Duration : 1 h 32 min
Bit rate mode : Constant
Bit rate : 1 509 kb/s
Channel(s) : 6 channels
Channel layout : C L R Ls Rs LFE
Sampling rate : 48.0 kHz
Frame rate : 93.750 FPS (512 SPF)
Bit depth : 24 bits
Compression mode : Lossy
Stream size : 1 001 MiB (11%)
Title : Original
Language : English
Default : No
Forced : No
Text
ID : 4
Format : UTF-8
Codec ID : S_TEXT/UTF8
Codec ID/Info : UTF-8 Plain Text
Duration : 1 h 28 min
Bit rate : 42 b/s
Count of elements : 956
Stream size : 28.0 KiB (0%)
Title : Full
Language : English
Default : No
Forced : No
Menu
00:00:00.000 : en:00:00:00.000
00:10:21.162 : en:00:10:21.162
00:30:39.254 : en:00:30:39.254
00:49:35.723 : en:00:49:35.723
01:11:59.398 : en:01:11:59.398
01:30:03.148 : en:01:30:03.148
[Профиль] [ЛС]
Показать сообщения:    
Ответить на тему

Текущее время: 16-Фев 11:15

Часовой пояс: UTC + 3



Вы не можете начинать темы
Вы не можете отвечать на сообщения
Вы не можете редактировать свои сообщения
Вы не можете удалять свои сообщения
Вы не можете голосовать в опросах
Вы не можете прикреплять файлы к сообщениям
Вы не можете скачивать файлы