Местные (Домушники) / The Domestics (2018) BDRip 1080p

Reply to topic
 
Author Message

Monk ®

Gender: Male

Longevity: 8 months 8 days

Posts: 7519

Location: Казань

Post 03-Dec-2018 09:49

[Quote]

Местные (Домушники) / The Domestics Год выпуска: 2018
Жанр: Ужасы, триллер
Выпущено: США, Hollywood Gang Productions
Режиссер: Майк П. Нельсон
В ролях: Тайлер Хэклин, Кейт Босворт, Соноя Мидзуно, Давид Дастмалчян, Лэнс Реддик, Дэна Гурье, Лора Кайюэтт, Майк П. Нельсон, Дэйв Дэвис, Брэд Лелэнд
О фильме: В ужасающем пост-апокалиптическом мире, населенном бандами, разделенными на смертоносные фракции, муж и жена отчаянно бегут по сельской местности в поисках безопасности и должны работать вместе, поскольку их вытесняют до предела, чтобы выжить.

Качество: BDRip 1080p
Видео: MPEG-4 AVC, 13 Мбит/с, 1920x800
Аудио: Русский (AC3, 2 ch, 192 Кбит/с), английский (AC3, 6 ch, 448 Кбит/с)
Продолжительность: 01:35:18
Перевод: Профессиональный многоголосый [HDrezka Studio]
Субтитры: Английские

Скриншоты

MediaInfo

x264 [info]: frame I:1202 Avg QP:14.39 size:202575
x264 [info]: frame P:28089 Avg QP:15.39 size:105022
x264 [info]: frame B:107799 Avg QP:17.88 size: 58646
General
Complete name : \Местные_The Domestics (2018) BDRip.H.264.1080p.NNMClub.mkv
Format : Matroska
Format version : Version 2
File size : 9.29 GiB
Duration : 1 h 35 min
Overall bit rate : 14.0 Mb/s
Movie name : Местные_The Domestics (2018) BDRip.H.264.1080p.NNMClub
Encoded date : UTC 2018-12-25 08:35:59
Writing application : mkvmerge v7.7.0 ('Six Voices') 64bit built on Feb 28 2015 23:39:33
Writing library : libebml v1.3.1 + libmatroska v1.4.2
Video
ID : 1
Format : AVC
Format/Info : Advanced Video Codec
Format profile : High@L4.1
Format settings : CABAC / 5 Ref Frames
Format settings, CABAC : Yes
Format settings, ReFrames : 5 frames
Codec ID : V_MPEG4/ISO/AVC
Duration : 1 h 35 min
Bit rate : 13.0 Mb/s
Width : 1 920 pixels
Height : 804 pixels
Display aspect ratio : 2.40:1
Frame rate mode : Constant
Frame rate : 23.976 (24000/1001) FPS
Color space : YUV
Chroma subsampling : 4:2:0
Bit depth : 8 bits
Scan type : Progressive
Bits/(Pixel*Frame) : 0.352
Stream size : 8.68 GiB (93%)
Title : Местные_The Domestics (2018) BDRip.H.264.1080p.NNMClub
Language : English
Default : Yes
Forced : No
Audio #1
ID : 2
Format : AC-3
Format/Info : Audio Coding 3
Codec ID : A_AC3
Duration : 1 h 35 min
Bit rate mode : Constant
Bit rate : 192 kb/s
Channel(s) : 2 channels
Channel positions : Front: L R
Sampling rate : 48.0 kHz
Frame rate : 31.250 FPS (1536 SPF)
Bit depth : 16 bits
Compression mode : Lossy
Stream size : 131 MiB (1%)
Title : MVO (HDRezka Studio)
Language : Russian
Service kind : Complete Main
Default : Yes
Forced : No
Audio #2
ID : 3
Format : AC-3
Format/Info : Audio Coding 3
Codec ID : A_AC3
Duration : 1 h 35 min
Bit rate mode : Constant
Bit rate : 448 kb/s
Channel(s) : 6 channels
Channel positions : Front: L C R, Side: L R, LFE
Sampling rate : 48.0 kHz
Frame rate : 31.250 FPS (1536 SPF)
Bit depth : 16 bits
Compression mode : Lossy
Stream size : 305 MiB (3%)
Title : Оригинал
Language : English
Service kind : Complete Main
Default : No
Forced : No
Text
ID : 4
Format : UTF-8
Codec ID : S_TEXT/UTF8
Codec ID/Info : UTF-8 Plain Text
Title : Full
Language : English
Default : No
Forced : No
Menu
00:00:00.000 : en:Chapter 01
00:09:11.926 : en:Chapter 02
00:12:26.203 : en:Chapter 03
00:15:16.957 : en:Chapter 04
00:19:15.946 : en:Chapter 05
00:23:04.966 : en:Chapter 06
00:28:34.963 : en:Chapter 07
00:39:53.974 : en:Chapter 08
00:43:20.973 : en:Chapter 09
00:51:49.314 : en:Chapter 10
00:56:17.916 : en:Chapter 11
01:03:11.704 : en:Chapter 12
01:13:56.974 : en:Chapter 13
01:18:42.134 : en:Chapter 14
01:22:09.633 : en:Chapter 15
01:31:24.937 : en:Chapter 16
01:35:16.752 : en:Chapter 17
[Profile] [PM]
Display posts:    
Reply to topic

Current time is: 22-Jul 22:33

All times are UTC + 3



You cannot post new topics in this forum
You cannot reply to topics in this forum
You cannot edit your posts in this forum
You cannot delete your posts in this forum
You cannot vote in polls in this forum
You cannot attach files in this forum
You cannot download files in this forum