Кровные братья / Blood Brother (2018) Blu-Ray Remux 1080p

Reply to topic
 
Author Message

Monk ®

Gender: Male

Longevity: 9 months 3 days

Posts: 7868

Location: Казань

Post 03-Dec-2018 10:34

[Quote]

Кровные братья / Blood Brother Год выпуска: 2018
Жанр: Боевик, триллер, драма, криминал
Выпущено: США, Code Black Entertainment
Режиссер: Джон Пог
В ролях: Чайна Энн МакКлейн, Джек Кеси, Рон Киллингс, Ноэль Рени Берси, Хассан Джонсон, Кеннет Кинт Брайан, Трей Сонгз, Теодус Крэйн, Тани МакКолл
О фильме: Главный герой — Джейк — выходит из тюрьмы после долгой отсидки и сразу же отправляется на разборки со своими бывшими подельниками, которые остались безнаказанными и всё это время наслаждались жизнью. Один из таких друзей — коп Джо — пытается остановить кровавую бойню и поставить точку в этой криминальной истории.

Качество: Blu-Ray Remux 1080p
Видео: MPEG-4 AVC, 25.3 Mбит/с, 1920x1080
Аудио: Русский (AC3, 2 ch, 192 Кбит/с), английский (DTS-HD MA, 6 ch, 3627 Кбит/с)
Продолжительность: 01:25:27
Перевод: Профессиональный многоголосый [HDrezka Studio]
Субтитры: Русские, английские

Скриншоты



MediaInfo

General
Unique ID : 193764552673438210239524928579869636288 (0x91C5B206BF5603D24BA7667E633076C0)
Complete name : G:\Blood.Brother.2018.REMUX.mkv
Format : Matroska
Format version : Version 4 / Version 2
File size : 17.4 GiB
Duration : 1 h 25 min
Overall bit rate mode : Variable
Overall bit rate : 29.1 Mb/s
Encoded date : UTC 2019-05-11 01:58:08
Writing application : mkvmerge v20.0.0 ('I Am The Sun') 64-bit
Writing library : libebml v1.3.5 + libmatroska v1.4.8
Video
ID : 1
Format : AVC
Format/Info : Advanced Video Codec
Format profile : High@L4.1
Format settings : CABAC / 4 Ref Frames
Format settings, CABAC : Yes
Format settings, RefFrames : 4 frames
Codec ID : V_MPEG4/ISO/AVC
Duration : 1 h 25 min
Bit rate mode : Variable
Bit rate : 25.3 Mb/s
Maximum bit rate : 37.0 Mb/s
Width : 1 920 pixels
Height : 1 080 pixels
Display aspect ratio : 16:9
Frame rate mode : Constant
Frame rate : 23.976 (24000/1001) FPS
Color space : YUV
Chroma subsampling : 4:2:0
Bit depth : 8 bits
Scan type : Progressive
Bits/(Pixel*Frame) : 0.508
Stream size : 15.1 GiB (87%)
Language : English
Default : Yes
Forced : No
Audio #1
ID : 2
Format : AC-3
Format/Info : Audio Coding 3
Codec ID : A_AC3
Duration : 1 h 25 min
Bit rate mode : Constant
Bit rate : 192 kb/s
Channel(s) : 2 channels
Channel positions : Front: L R
Sampling rate : 48.0 kHz
Frame rate : 31.250 FPS (1536 SPF)
Bit depth : 16 bits
Compression mode : Lossy
Stream size : 117 MiB (1%)
Title : MVO HDrezka Studio
Language : Russian
Service kind : Complete Main
Default : Yes
Forced : No
Audio #2
ID : 3
Format : DTS
Format/Info : Digital Theater Systems
Format profile : MA / Core
Codec ID : A_DTS
Duration : 1 h 25 min
Bit rate mode : Variable / Constant
Bit rate : 3 627 kb/s / 1 509 kb/s
Channel(s) : 6 channels
Channel positions : Front: L C R, Side: L R, LFE
Sampling rate : 48.0 kHz
Frame rate : 93.750 FPS (512 SPF)
Bit depth : 24 bits
Compression mode : Lossless / Lossy
Stream size : 2.16 GiB (12%)
Language : English
Default : No
Forced : No
Text #1
ID : 4
Format : UTF-8
Codec ID : S_TEXT/UTF8
Codec ID/Info : UTF-8 Plain Text
Duration : 1 h 20 min
Bit rate : 86 b/s
Count of elements : 1001
Stream size : 51.0 KiB (0%)
Language : Russian
Default : No
Forced : No
Text #2
ID : 5
Format : UTF-8
Codec ID : S_TEXT/UTF8
Codec ID/Info : UTF-8 Plain Text
Duration : 1 h 22 min
Bit rate : 68 b/s
Count of elements : 1232
Stream size : 41.4 KiB (0%)
Language : English
Default : No
Forced : No
Text #3
ID : 6
Format : PGS
Muxing mode : zlib
Codec ID : S_HDMV/PGS
Codec ID/Info : Picture based subtitle format used on BDs/HD-DVDs
Duration : 1 h 20 min
Bit rate : 34.3 kb/s
Count of elements : 2004
Stream size : 19.8 MiB (0%)
Language : Spanish
Default : No
Forced : No
Menu
00:00:00.000 : en:Chapter 1
00:04:41.781 : en:Chapter 2
00:10:19.160 : en:Chapter 3
00:15:12.661 : en:Chapter 4
00:21:37.921 : en:Chapter 5
00:25:17.140 : en:Chapter 6
00:31:08.366 : en:Chapter 7
00:38:13.416 : en:Chapter 8
00:43:59.386 : en:Chapter 9
00:47:24.883 : en:Chapter 10
00:53:30.582 : en:Chapter 11
00:58:21.247 : en:Chapter 12
01:03:44.320 : en:Chapter 13
01:08:20.888 : en:Chapter 14
01:14:47.691 : en:Chapter 15
01:20:47.926 : en:Chapter 16
[Profile] [PM]
Display posts:    
Reply to topic

Current time is: 17-Aug 21:20

All times are UTC + 3



You cannot post new topics in this forum
You cannot reply to topics in this forum
You cannot edit your posts in this forum
You cannot delete your posts in this forum
You cannot vote in polls in this forum
You cannot attach files in this forum
You cannot download files in this forum