Темная сестра / Dark Sister (2018) WEBRip

Reply to topic
 
Author Message

Monk ®

Gender: Male

Longevity: 9 months 3 days

Posts: 7868

Location: Казань

Post 03-Dec-2018 10:47

[Quote]

Темная сестра / Dark Sister Год выпуска: 2018
Жанр: Ужасы
Выпущено: США
Режиссер: Сэм Баррет
В ролях: Николя Бартлетт, Остин Кастильоне, Лайам Грэхэм, Аманда Вудхэмс
О фильме: Художница Кэсси страдает от постоянных видений об убийствах, которые затем переносит на холст. Но когда ее видения начинают сбываться в реальности, начинают умирать ее друзья и родные. Понимая, что видения могут привести ее к убийце, Кэсси должна встретиться с прошлым, чтобы остановить убийства и спасти себя.
Качество: WEBRip
Видео: XviD, 1630 Кбит/с, 720x304
Аудио: AC3, 2 ch, 384 Кбит/с
Продолжительность: 01:36:49
Перевод: Любительский двухголосый [Varun]
Реклама: надписи, звуковые вставки и видео

Скриншоты


MediaInfo

General
Complete name : C:ConvertDark_Sister_2018.avi
Format : AVI
Format/Info : Audio Video Interleave
Format profile : OpenDML
File size : 1.37 GiB
Duration : 1 h 36 min
Overall bit rate : 2 026 kb/s
Writing application : Lavf57.48.101
Video
ID : 0
Format : MPEG-4 Visual
Format profile : Advanced Simple@L5
Format settings : BVOP1
Format settings, BVOP : 1
Format settings, QPel : No
Format settings, GMC : No warppoints
Format settings, Matrix : Default (H.263)
Codec ID : XVID
Codec ID/Hint : XviD
Duration : 1 h 36 min
Bit rate : 1 630 kb/s
Width : 720 pixels
Height : 304 pixels
Display aspect ratio : 2.35:1
Frame rate : 24.000 FPS
Color space : YUV
Chroma subsampling : 4:2:0
Bit depth : 8 bits
Scan type : Progressive
Compression mode : Lossy
Bits/(Pixel*Frame) : 0.310
Stream size : 1.10 GiB (80%)
Writing library : Lavc57.54.101
Audio
ID : 1
Format : AC-3
Format/Info : Audio Coding 3
Codec ID : 2000
Duration : 1 h 36 min
Bit rate mode : Constant
Bit rate : 384 kb/s
Channel(s) : 2 channels
Channel positions : Front: L R
Sampling rate : 48.0 kHz
Frame rate : 31.250 FPS (1536 SPF)
Bit depth : 16 bits
Compression mode : Lossy
Stream size : 266 MiB (19%)
Alignment : Aligned on interleaves
Interleave, duration : 32 ms (0.77 video frame)
Service kind : Complete Main
[Profile] [PM]
Display posts:    
Reply to topic

Current time is: 17-Aug 21:21

All times are UTC + 3



You cannot post new topics in this forum
You cannot reply to topics in this forum
You cannot edit your posts in this forum
You cannot delete your posts in this forum
You cannot vote in polls in this forum
You cannot attach files in this forum
You cannot download files in this forum