Полицейский с Рублёвки [4 сезон: 1-8 серии из 8] (2018) WEBRip от GeneralFilm

Reply to topic
 
Author Message

vsobbol ®

Gender: Male

Longevity: 2 years 6 months

Posts: 761

Location: Донецк

Post 03-Dec-2018 12:02

[Quote]

Полицейский с Рублёвки
Год выпуска: 2018
Жанр: Драма, комедия
Выпущено: Россия, LEGIO FELIX
Режиссер: Илья Куликов
В ролях: Александр Петров, Сергей Бурунов, София Каштанова, Александра Бортич, Татьяна Бабенкова, Роман Попов, Ростислав Гулбис, Сергей Штатнов, Светлана Суханова, Ирина Вилкова
О фильме: Грише Измайлову и его начальнику Владимиру Яковлеву противостоит преступный гений, который решил сделать жизнь рублёвских обитателей невыносимой. Прежде спокойный и безопасный район теперь задыхается от беззакония, злодей посягнул даже на оплот правопорядка — отдел полиции «Барвиха». В борьбе с преступником полицейские решают применить своё тайное оружие: умения и таланты следователя Игоря Мухича.

Качество: WEBRip
Видео: XviD build 73, 720x304 (2.35:1), 25.000 fps, ~ 1550 Kbps (~ 0.215 bit/pixel)
Аудио: 48.0 kHz, AC3, 2/0 ch, 192 kbps
Продолжительность: 8 x ~ 00:47:00
Перевод: Не требуется
Cубтитры: нет

Скриншоты


MediaInfo

General
Complete name : D:\Razdachi\Policejskij.s.Rublevki.s04.2018.XviD.WEBRip.GeneralFilm\Policejskij.s.Rublevki.s04.e01.avi
Format : AVI
Format/Info : Audio Video Interleave
File size : 557 MiB
Duration : 47 min 18 s
Overall bit rate : 1 647 kb/s
Writing application : VirtualDubMod 1.5.10.3 | www.virtualdub-fr.org || (build 2550/release)
Writing library : VirtualDubMod build 2550/release
Video
ID : 0
Format : MPEG-4 Visual
Format profile : Advanced Simple@L5
Format settings, BVOP : 1
Format settings, QPel : No
Format settings, GMC : No warppoints
Format settings, Matrix : Custom
Codec ID : XVID
Codec ID/Hint : XviD
Duration : 47 min 18 s
Bit rate : 1 445 kb/s
Width : 720 pixels
Height : 304 pixels
Display aspect ratio : 2.35:1
Frame rate : 25.000 FPS
Color space : YUV
Chroma subsampling : 4:2:0
Bit depth : 8 bits
Scan type : Progressive
Compression mode : Lossy
Bits/(Pixel*Frame) : 0.264
Stream size : 489 MiB (88%)
Writing library : XviD 73
Audio
ID : 1
Format : AC-3
Format/Info : Audio Coding 3
Format settings, Endianness : Big
Codec ID : 2000
Duration : 47 min 18 s
Bit rate mode : Constant
Bit rate : 192 kb/s
Channel(s) : 2 channels
Channel positions : Front: L R
Sampling rate : 48.0 kHz
Frame rate : 31.250 FPS (1536 SPF)
Bit depth : 16 bits
Compression mode : Lossy
Stream size : 65.0 MiB (12%)
Alignment : Split accross interleaves
Interleave, duration : 40 ms (1.00 video frame)
Interleave, preload duratio : 500 ms
Service kind : Complete Main
Релиз от:


Last edited by vsobbol on 2018-12-10 19:38; edited 13 times in total
[Profile] [PM]

Мухич

Gender: Male

Longevity: 2 years 6 months

Posts: 43

Post 03-Dec-2018 12:10 (after 8 minutes)

[Quote]

vsobbol, спасибо огромное дождались новый сезон
[Profile] [PM]

vsobbol ®

Gender: Male

Longevity: 2 years 6 months

Posts: 761

Location: Донецк

Post 03-Dec-2018 12:16 (after 5 minutes)

[Quote]

1591vsobbol, спасибо огромное дождались новый сезон
Пожалуйста!
[Profile] [PM]
Display posts:    
Reply to topic

Current time is: 15-Jun 07:18

All times are UTC + 3



You cannot post new topics in this forum
You cannot reply to topics in this forum
You cannot edit your posts in this forum
You cannot delete your posts in this forum
You cannot vote in polls in this forum
You cannot attach files in this forum
You cannot download files in this forum