Discovery: Махинаторы / Wheeler Dealers [13 сезон: 1-18 серии из 18] (2016) HDTV 1080i

Reply to topic
 
Author Message

Starik60 ®

Деактивирован

Gender: Male

Longevity: 2 years 11 months

Posts: 279

Location: Москва, Россия

Post 03-Dec-2018 16:02

[Quote]

Махинаторы / Wheeler Dealers
Год выпуска: 2016
Жанр: Документальный, история, автомобилестроение
Выпущено: Великобритания, Attaboy TV LTD for Discovery Channel
Режиссер: Ричард Хили, Уоррен Грин, Дэниэл Аллум, МAайкл Вуд, Эд Чайна
В ролях: Майк Брюэр, Эд Чайна.
О фильме: Суть передачи такова: ведущий (Майк Брюэр) покупает старенькую машину-автоклассику за небольшие деньги и передает ее механику-профессионалу (Эд Чайна), чтобы тот, в свою очередь, восстановил ее до приличного состояния, уложившись при этом в определенный бюджет. Далее ведущий попытается продать авто, за сумму перекрывающую расходы на ее покупку и ремонт, и постарается остаться даже в небольшой прибыли от подобного рода "махинации", а как это у них получится, смотрите сами...

Качество: HDTV 1080i
Видео: AVC, ~ 7000 Кбит/с, 1920x1080
Аудио: MP2, 2 ch, 364 Кбит/с
Продолжительность: 18 x ~ 00:44:00
Перевод: Дублированный

Скриншоты




MediaInfo

General
ID : 1 (0x1)
Complete name : H:\Раздачи 3\Махинаторы..1080i s13.HitWay\01 Махинаторы hitway .ts
Format : MPEG-TS
File size : 2.35 GiB
Duration : 43 min 58 s
Overall bit rate mode : Variable
Overall bit rate : 7 656 kb/s
Video
ID : 224 (0xE0)
Menu ID : 1 (0x1)
Format : AVC
Format/Info : Advanced Video Codec
Format profile : High@L4.1
Format settings : CABAC / 3 Ref Frames
Format settings, CABAC : Yes
Format settings, ReFrames : 3 frames
Codec ID : 27
Duration : 43 min 58 s
Bit rate mode : Constant
Bit rate : 7 000 kb/s
Width : 1 920 pixels
Height : 1 080 pixels
Display aspect ratio : 16:9
Frame rate : 30.000 FPS
Standard : NTSC
Color space : YUV
Chroma subsampling : 4:2:0
Bit depth : 8 bits
Scan type : Progressive
Bits/(Pixel*Frame) : 0.113
Stream size : 2.12 GiB (90%)
Color range : Limited
Color primaries : BT.709
Transfer characteristics : BT.709
Matrix coefficients : BT.709
Audio
ID : 4097 (0x1001)
Menu ID : 1 (0x1)
Format : MPEG Audio
Format version : Version 1
Format profile : Layer 2
Codec ID : 3
Duration : 43 min 58 s
Bit rate mode : Constant
Bit rate : 384 kb/s
Channel(s) : 2 channels
Sampling rate : 48.0 kHz
Frame rate : 41.667 FPS (1152 SPF)
Compression mode : Lossy
Delay relative to video : 13 ms
Stream size : 121 MiB (5%)
Language : English

Название серий

01. Mercedes 560SL 1987 года.
02. Volvo PV544 1963 года.
03. Honda CVCC 1977 года.
04. Chevy LUV 1980 года.
05. Ford Mustang GT 1988 года.
06. Chevy Corvair 1963 года.
07. Land Rover IIA 1965 года.
08. Chevy Corvette 1968 года.
09. Лучшие моменты.
10. Ford Bronco 1970 года.
11. Mercedes 500 Sec 1983 года.
12. Porsche 912E 1976 года.
13. Chevrolet Camaro 1973 года.
14. Sunbeam Alpine 1963 года.
15. AM General Humvee 1992 года.
16. Maserati Biturbo 1985 года.
17. Cadillac V8 1916 года.
18. Лучшие моменты 2.
Благодарю за отличный постер ValkiriaGF
Релиз от:
[Profile] [PM]
Display posts:    
Reply to topic

Current time is: 22-Oct 09:30

All times are UTC + 3



You cannot post new topics in this forum
You cannot reply to topics in this forum
You cannot edit your posts in this forum
You cannot delete your posts in this forum
You cannot vote in polls in this forum
You cannot attach files in this forum
You cannot download files in this forum